[ Сегодня идет свободное скачивание без начисления Download ]


Статистика раздачи
Скачал: [ 1 ]
 
   
 
Top  
 
 
-Хищник 2 / Predator 2 -«Безмолвный. Невидимый. Непобедимый. Приходит в город, чтобы утолить свою жажду убивать» -Год выпуска: 1990
Производство: США
Жанр: Фантастика, боевик, триллер
Перевод:
Профессиональный (дублированный) - Лицензия
Профессиональный (многоголосый закадровый) - Киномания
Профессиональный (многоголосый закадровый) - MVO (DVO Гланц и Королева)
Профессиональный (многоголосый закадровый) - ОРТ
Авторский (одноголосый закадровый) - Гаврилов
Авторский (одноголосый закадровый) - Гаврилов ( VHS )
Авторский (одноголосый закадровый) - В.Горчаков
Авторский (одноголосый закадровый) - А.Готлиб
Авторский (одноголосый закадровый) - К.Поздняков
Профессиональный (многоголосый закадровый) - Украинский ( ICTV )
Профессиональный (многоголосый закадровый) - Украинский ( 1+1 )
Оригинал - Английский-Дата мировой премьеры: 19 ноября 1990
Дата выхода DVD релиза: 13 октября 2009, «Флагман-Трейд»
Дата выхода Blu-Ray релиза: 26 февраля 2009, «Двадцатый Век Фокс СНГ»-Режиссер: Стивен Хопкинс
Актеры: Кевин Питер Холл, Дэнни Гловер, Гари Бьюзи, Рубен Блейдс, Мария Кончита Алонсо, Билл Пэкстон, Роберт Дави, Адам Болдуин, Кент МакКорд, Мортон Дауни мл., Кэлвин Локхарт, Steve Kahan, Генри Кинги, Кори Рэнд, Элпидия Каррильо, Лилиан Шовин, Майкл Марк Эдмондсон, Тери Вейгель, Уильям Р. Перри, Алекс Чэпман, Герард Дж. Уильямс-Описание фильма:
Харриган — крутой полицейский отдела по борьбе с наркотиками полиции Лос-Анджелеса. Ему поручено расследование серии убийств крупных криминальных авторитетов города. Все убийства совершены в извращенной форме и пахнут неприкрытым садизмом. После проведения экспертиз и расследований становится ясно, что убийство — дело рук существа, не имеющего ничего общего с человеком.
Землю опять посетил межпланетный охотник, но ему придется столкнуться с существом еще более опасным, чем он сам — с человеком. Харриган выслеживает охотника, постепенно сам становясь охотником. Один на один, как настоящий воин, он ведет бескомпромиссную битву за сохранение чести и права человека не быть существом, на которое можно охотиться.- -Продолжительность: 01:48:00
Качество видео: BDRip [1080p]
Контейнер: MKV
Видеокодек: MPEG-4 AVC/H.264
Битрейт видео: 30,0 Мбит/сек
Размер кадра: 1920 x 1080 (1.778) at 59.940 fps-Аудио 01: AC-3, 448 Kbps (6 ch), 48.0 KHz, 16 bits - Дублированный
Аудио 02: AC-3, 384 Kbps (6 ch), 48.0 KHz, 16 bits - Киномания
Аудио 03: AC-3, 448 Kbps (6 ch), 48.0 KHz, 16 bits - MVO
Аудио 04: AC-3, 192 Kbps (2 ch), 48.0 KHz, 16 bits - ОРТ
Аудио 05: AC-3, 448 Kbps (6 ch), 48.0 KHz, 16 bits - Гаврилов
Аудио 06: AC-3, 192 Kbps (2 ch), 48.0 KHz, 16 bits - Гаврилов ( VHS )
Аудио 07: AC-3, 384 Kbps (6 ch), 48.0 KHz, 16 bits - В.Горчаков
Аудио 08: AC-3, 192 Kbps (2 ch), 48.0 KHz, 16 bits - А.Готлиб
Аудио 09: AC-3, 448 Kbps (6 ch), 48.0 KHz, 16 bits - К.Поздняков
Аудио 10: AC-3, 448 Kbps (6 ch), 48.0 KHz, 16 bits - Украинский ( ICTV )
Аудио 11: AC-3, 448 Kbps (6 ch), 48.0 KHz, 16 bits - Украинский ( 1+1 )
Аудио 12: AC-3, 448 Kbps (6 ch), 48.0 KHz, 16 bits - Английский

MediaInfo + Bitrate Viewer

Программа кодирования : mkvmerge v3.4.0 ('Rapunzel') сборка от May 15 2010 09:38:20
Библиотека кодирования : libebml v0.8.0 + libmatroska v0.9.0

Видео
Идентификатор : 1
Формат : AVC
Формат/Информация : Advanced Video Codec
Профиль формата : High@L4.1
Параметр CABAC формата : Да
Параметр ReFrames формата : 4 кадра
Идентификатор кодека : V_MPEG4/ISO/AVC
Продолжительность : 1 ч. 48 м.
Битрейт : 30,0 Мбит/сек
Ширина : 1920 пикселей
Высота : 1080 пикселей
Соотношение сторон : 16:9
Режим частоты кадров : Постоянный
Частота кадров : 59,880 кадров/сек
Частота кадров в оригинале : 59,940 кадров/сек
Цветовое пространство : YUV
Субдискретизация насыщенности : 4:2:0
Битовая глубина : 8 бит
Тип развёртки : Прогрессивная
Бит/(Пиксели*Кадры) : 0.242
Размер потока : 22,1 Гбайт (85%)
Заголовок : reliz KRYL1411
Библиотека кодирования : x264 core 129 r2245 bc13772
Настройки программы : cabac=1 / ref=4 / deblock=1:-2:-2 / analyse=0x3:0x133 / me=esa / subme=11 / psy=1 / psy_rd=1.00:0.00 / mixed_ref=1 / me_range=32 / chroma_me=1 / trellis=2 / 8x8dct=1 / cqm=0 / deadzone=21,11 / fast_pskip=1 / chroma_qp_offset=-2 / threads=12 / lookahead_threads=2 / sliced_threads=0 / nr=0 / decimate=1 / interlaced=0 / bluray_compat=0 / constrained_intra=0 / bframes=8 / b_pyramid=2 / b_adapt=2 / b_bias=0 / direct=3 / weightb=1 / open_gop=0 / weightp=2 / keyint=599 / keyint_min=59 / scenecut=40 / intra_refresh=0 / rc_lookahead=60 / rc=2pass / mbtree=1 / bitrate=30049 / ratetol=1.0 / qcomp=0.60 / qpmin=0 / qpmax=69 / qpstep=4 / cplxblur=20.0 / qblur=0.5 / ip_ratio=1.40 / aq=1:1.00
Язык : English
Default : Нет
Forced : Нет
Аудио #1
Идентификатор : 2
Формат : AC-3
Формат/Информация : Audio Coding 3
Расширение режима : CM (complete main)
Параметр Endianness формата : Big
Идентификатор кодека : A_AC3
Продолжительность : 1 ч. 48 м.
Вид битрейта : Постоянный
Битрейт : 448 Кбит/сек
Каналы : 6 каналов
Расположение каналов : Front: L C R, Side: L R, LFE
Частота : 48,0 КГц
Битовая глубина : 16 бит
Метод сжатия : С потерями
Размер потока : 346 Мбайт (1%)
Заголовок : Дубляж
Default : Да
Forced : Нет
Аудио #2
Идентификатор : 3
Формат : AC-3
Формат/Информация : Audio Coding 3
Расширение режима : CM (complete main)
Параметр Endianness формата : Big
Идентификатор кодека : A_AC3
Продолжительность : 1 ч. 48 м.
Вид битрейта : Постоянный
Битрейт : 384 Кбит/сек
Каналы : 6 каналов
Расположение каналов : Front: L C R, Side: L R, LFE
Частота : 48,0 КГц
Битовая глубина : 16 бит
Метод сжатия : С потерями
Размер потока : 297 Мбайт (1%)
Заголовок : Киномания
Default : Нет
Forced : Нет
Аудио #3
Идентификатор : 4
Формат : AC-3
Формат/Информация : Audio Coding 3
Расширение режима : CM (complete main)
Параметр Endianness формата : Big
Идентификатор кодека : A_AC3
Продолжительность : 1 ч. 48 м.
Вид битрейта : Постоянный
Битрейт : 448 Кбит/сек
Каналы : 6 каналов
Расположение каналов : Front: L C R, Side: L R, LFE
Частота : 48,0 КГц
Битовая глубина : 16 бит
Метод сжатия : С потерями
Размер потока : 346 Мбайт (1%)
Заголовок : MVO (DVO Гланц и Королева)
Default : Нет
Forced : Нет
Аудио #4
Идентификатор : 5
Формат : AC-3
Формат/Информация : Audio Coding 3
Расширение режима : CM (complete main)
Параметр Endianness формата : Big
Идентификатор кодека : A_AC3
Продолжительность : 1 ч. 48 м.
Вид битрейта : Постоянный
Битрейт : 192 Кбит/сек
Каналы : 2 канала
Расположение каналов : Front: L R
Частота : 48,0 КГц
Битовая глубина : 16 бит
Метод сжатия : С потерями
Размер потока : 148 Мбайт (1%)
Заголовок : ОРТ
Default : Нет
Forced : Нет
Аудио #5
Идентификатор : 6
Формат : AC-3
Формат/Информация : Audio Coding 3
Расширение режима : CM (complete main)
Параметр Endianness формата : Big
Идентификатор кодека : A_AC3
Продолжительность : 1 ч. 48 м.
Вид битрейта : Постоянный
Битрейт : 448 Кбит/сек
Каналы : 6 каналов
Расположение каналов : Front: L C R, Side: L R, LFE
Частота : 48,0 КГц
Битовая глубина : 16 бит
Метод сжатия : С потерями
Размер потока : 346 Мбайт (1%)
Заголовок : Гаврилов
Default : Нет
Forced : Нет
Аудио #6
Идентификатор : 7
Формат : AC-3
Формат/Информация : Audio Coding 3
Расширение режима : CM (complete main)
Параметр Endianness формата : Big
Идентификатор кодека : A_AC3
Продолжительность : 1 ч. 48 м.
Вид битрейта : Постоянный
Битрейт : 192 Кбит/сек
Каналы : 2 канала
Расположение каналов : Front: L R
Частота : 48,0 КГц
Битовая глубина : 16 бит
Метод сжатия : С потерями
Размер потока : 148 Мбайт (1%)
Заголовок : Гаврилов ( VHS )
Default : Нет
Forced : Нет
Аудио #7
Идентификатор : 8
Формат : AC-3
Формат/Информация : Audio Coding 3
Расширение режима : CM (complete main)
Параметр Endianness формата : Big
Идентификатор кодека : A_AC3
Продолжительность : 1 ч. 48 м.
Вид битрейта : Постоянный
Битрейт : 384 Кбит/сек
Каналы : 6 каналов
Расположение каналов : Front: L C R, Side: L R, LFE
Частота : 48,0 КГц
Битовая глубина : 16 бит
Метод сжатия : С потерями
Размер потока : 297 Мбайт (1%)
Заголовок : В.Горчаков
Default : Нет
Forced : Нет
Аудио #8
Идентификатор : 9
Формат : AC-3
Формат/Информация : Audio Coding 3
Расширение режима : CM (complete main)
Параметр Endianness формата : Big
Идентификатор кодека : A_AC3
Продолжительность : 1 ч. 48 м.
Вид битрейта : Постоянный
Битрейт : 192 Кбит/сек
Каналы : 2 канала
Расположение каналов : Front: L R
Частота : 48,0 КГц
Битовая глубина : 16 бит
Метод сжатия : С потерями
Размер потока : 148 Мбайт (1%)
Заголовок : А.Готлиб
Default : Нет
Forced : Нет
Аудио #9
Идентификатор : 10
Формат : AC-3
Формат/Информация : Audio Coding 3
Расширение режима : CM (complete main)
Параметр Endianness формата : Big
Идентификатор кодека : A_AC3
Продолжительность : 1 ч. 48 м.
Вид битрейта : Постоянный
Битрейт : 448 Кбит/сек
Каналы : 6 каналов
Расположение каналов : Front: L C R, Side: L R, LFE
Частота : 48,0 КГц
Битовая глубина : 16 бит
Метод сжатия : С потерями
Размер потока : 346 Мбайт (1%)
Заголовок : К.Поздняков
Default : Нет
Forced : Нет
Аудио #10
Идентификатор : 11
Формат : AC-3
Формат/Информация : Audio Coding 3
Расширение режима : CM (complete main)
Параметр Endianness формата : Big
Идентификатор кодека : A_AC3
Продолжительность : 1 ч. 48 м.
Вид битрейта : Постоянный
Битрейт : 448 Кбит/сек
Каналы : 6 каналов
Расположение каналов : Front: L C R, Side: L R, LFE
Частота : 48,0 КГц
Битовая глубина : 16 бит
Метод сжатия : С потерями
Размер потока : 346 Мбайт (1%)
Заголовок : Украинский ( ICTV )
Default : Нет
Forced : Нет
Аудио #11
Идентификатор : 12
Формат : AC-3
Формат/Информация : Audio Coding 3
Расширение режима : CM (complete main)
Параметр Endianness формата : Big
Идентификатор кодека : A_AC3
Продолжительность : 1 ч. 48 м.
Вид битрейта : Постоянный
Битрейт : 448 Кбит/сек
Каналы : 6 каналов
Расположение каналов : Front: L C R, Side: L R, LFE
Частота : 48,0 КГц
Битовая глубина : 16 бит
Метод сжатия : С потерями
Размер потока : 346 Мбайт (1%)
Заголовок : Украинский ( 1+1 )
Default : Нет
Forced : Нет
Аудио #12
Идентификатор : 13
Формат : AC-3
Формат/Информация : Audio Coding 3
Расширение режима : CM (complete main)
Параметр Endianness формата : Big
Идентификатор кодека : A_AC3
Продолжительность : 1 ч. 48 м.
Вид битрейта : Постоянный
Битрейт : 448 Кбит/сек
Каналы : 6 каналов
Расположение каналов : Front: L C R, Side: L R, LFE
Частота : 48,0 КГц
Битовая глубина : 16 бит
Метод сжатия : С потерями
Размер потока : 346 Мбайт (1%)
Заголовок : Английский
Default : Нет
Forced : Нет

Знаете ли вы, что...

Первое появление в кино Гэри Бьюзи после мотоциклетной аварии, в которой актер чуть не погиб.
Продюсеры предлагали Джону МакТирнану во второй раз занять режиссерское кресло, но он отказался.
«Хищник 2» стал первым фильмом, получившим рейтинг «NC-17» (который был введен незадолго до премьеры картины) из-за огромного количества насилия на экране. Фильм перемонтировали более чем двадцать раз, для того чтобы получить рейтинг «R».
Арнольд Шварценеггер планировал сыграть в фильме, но, в конце концов, предпочел поработать над «Терминатором 2» (1991).
Среди трофеев Хищника можно заметить череп Чужого.
Идея включить череп Чужого в трофеи Хищника принадлежала Стэну Уинстону, который также работал над спецэффектами к «Чужим» (1986).
Сцена, в которой Хищник устраивает кровавую бойню в метро, снималась в огромном павильоне на студии 20th Century Fox. Непосредственно кадры с движущимся поездом снимались в Окланде, Калифорния.
Съёмки перестрелки в восточном Лос-Анджелесе заняли три дня.
Идеи внешнего облика оружия, используемого Хищником, принадлежат Стэну Уинстону, Стивену Хопкинсу и Лоуренсу Дж. Поллу.
Съёмки сцены на скотобойне заняли четыре дня.
Следующие сцены были вырезаны из фильма:
1) Сюжетная линия, рассказывающая о беременности Леоны.
2) Сцена, в которой Дэнни Гловер преследует Хищника, была намного длиннее.
3) Бойня, которую учинил Хищник в метро.
Предполагалось, что события, показанные в фильме, будут происходить в Нью-Йорке, но из-за бюджетных ограничений место действия изменили на Лос-Анджелес. Сцена, в которой Хищник поднимает череп во время грозы, должна была происходить на крыше здания компании Chrysler.
Одну из ролей в фильме мог исполнить Патрик Суэйзи, но он не смог принять участия в проекте из-за травмы, полученной во время съёмок «Придорожной закусочной» (1989).
Звуки, которые издает Хищник, являются комбинацией звуков, кошек, тигров, львов и медведей.
Один из Хищников отдает герою Дэнни Гловера мушкет 1715 года. По словам сценаристов, это было сделано для того, чтобы оставить зацепку для продолжения, где действие происходило бы не в наше время, а несколько веков назад.
По словам сценаристов фильма, Джима и Джона Томасов, изначально не планировалось снимать продолжение «Хищника». Сиквел был запущен в производства после успешных продаж серии комиксов о космическом охотнике.
В основу ямайской бандитской группировки, показанной в фильме, легла настоящая банда, которая терроризировала Нью-Йорк и Канзас Сити в конце 1980-х гг.
Одна из копий Хищника была украдена во время съёмок фильма.
Сценарий картины претерпел множество изменений. Например, изначально предполагалось, что вместо Кейса (Гэри Бьюзи), будет Датч, персонаж Арнольда Шварценеггера из первого фильма. Но Арни не понравилась идея того, что действие будет происходить в городе, и он отказался от роли.
Фамилия Дэнни (Рубен Бладес) — Архулета. Джей Том Архулета был помощником режиссера первого и второго фильмов о Хищнике.
Одну из ролей в картине исполнила Элпидия Каррильо, сыгравшая в «Хищнике» (1987) Анну. Её имя упоминается в финальных титрах, но в фильме заметить её очень сложно. Дело в том, что сцена с её участием была вырезана из картины. В этой сцене она рассказывает о событиях, произошедших в южно-американских джунглях. Не смотря на то, что сцену вырезали, Анна всё-таки появляется на экране. Видео с её участием можно заметить на мониторе в передвижном командном пункте Питера Кейса (Гэри Бьюзи), когда он рассказывает о механизме самоуничтожения Хищника.
Хищники на борту корабля в конце фильма — баскетбольная команда НБА Лос-Анджелес Лейкерс.
Джон Литгоу был первоначальным выбором Стивена Хопкинса на роль Питера Кейса, но продюсер Джоэл Силвер настоял на кандидатуре Гэри Бьюзи.
В соответствующих фильмах «Чужие», «Хищник 2» и «Терминатор» убивали персонажей Билла Пэкстона.

Рецензия, отзыв о фильме

Как и в целом ряде продолжений известных фильмов ужасов и фантастических историй, действие ещё одной серии «Хищника» об инопланетном чудовище странной природы перенесено в крупный город будущего, на семь лет вперёд, а именно — в Лос-Анджелес 1997 года. Полицейский Майк Хэрриган при содействии-соперничестве Питера Киза, агента ФБР, пытается разделаться с обнаглевшим Хищником, который чувствует себя среди громадных зданий отнюдь не хуже, чем в джунглях Центральной Америки.
Из прежнего состава исполнителей лишь Кевин Питер Холл вновь пребывает на экране в качестве космического существа, причём авторы даже не стали утруждать себя объяснением, тот ли самый монстр выжил (горькая ирония судьбы заключается в том, что сам Холл умер почти через полгода после премьеры от СПИДа, будучи заражённым в результате переливания крови). А вместо непобедимого Арнольда Шварценеггера были привлечены Дэнни Главер и Гэри Бьюзи, игравшие вместе ещё в «Смертельном оружии». Но это не помогло успеху «Хищника 2», который по посещаемости уступил оригиналу более чем вдвое.
Поначалу фильм чуть ли не усыпляет — и лишь в финале, словно вдогонку, ослепляет набором спецэффектов и визуальных выкрутасов. Режиссёр Стивен Хопкинс, который вслед за Ренни Харлином отправился из «ужасного мира Фредди Крюгера» в «высшую сферу супербоевиков», не добился таких потрясающих результатов, как автор «Крепкого орешка 2», но хотя бы мог гордиться незначительным (по сравнению с «Кошмаром на улице Вязов 5») улучшением личного коммерческого рекорда.
Скриншоты

[Цитировать]



Показать сообщения:    

Текущее время: 07-Дек 17:27

Часовой пояс: UTC + 3


Вы не можете начинать темы
Вы не можете отвечать на сообщения
Вы не можете редактировать свои сообщения
Вы не можете удалять свои сообщения
Вы не можете голосовать в опросах
Вы не можете прикреплять файлы к сообщениям
Вы не можете скачивать файлы

!ВНИМАНИЕ!
Сайт не предоставляет электронные версии произведений, а занимается лишь коллекционированием и каталогизацией ссылок, присылаемых и публикуемых на форуме нашими читателями. Если вы являетесь правообладателем какого-либо представленного материала и не желаете, чтобы ссылка на него находилась в нашем каталоге, свяжитесь с нами, и мы незамедлительно удалим ее. Файлы для обмена на трекере предоставлены пользователями сайта, и администрация не несет ответственности за их содержание. Просьба не заливать файлы, защищенные авторскими правами, а также файлы нелегального содержания!