[ Сегодня идет свободное скачивание без начисления Download ]


Статистика раздачи
Нет
 
   
 
Top  
 
 
Информация о фильме
Название: Крокодил Данди в Лос-Анджелесе
Оригинальное название: Crocodile Dundee in Los Angeles
Год выхода: 2001
Жанр: Комедия, приключения
Режиссер: Саймон Уинсер / Simon Wincer
В ролях: Пол Хоган, Линда Козловски, Джер Бернс, Джонатан Бэнкс, Алек Уилсон, Джерри Скилтон, Стив Рэкмен, Серж Кокберн, Аида Туртурро, Пол Родригез, Кэйтлин Хопкинс, Дэвид Кленденнинг, Дьюк Бэннистер, Бетти Боббитт, Карен Кроун, Анджела Кэмпбелл, Тириел Мора, Дэвид Нгумбуджарра, Патрик Дарган, Мэтт Уинстон, Морган О’Нил, Клер Кэри, Брайан Турк, Владимир МакКрэри, Дэвид Бикфорд, Ронда Олдрич, Кевин ЛаРоса, Дэрил Роач, Джо Майкл Бурк, Джим Дэвидсон, Анджело Перез, Джерри Дель Сол, Харви Шэйн, Кели Дэниелс, Ленни Цитрано, Кара Мишель Мештер
Пол Хоган, Линда Козловски, Джер Бернс, Джонатан Бэнкс, Алек Уилсон, Джерри Скилтон, Стив Рэкмен, Серж Кокберн, Аида Туртурро, Пол Родригез
О фильме: Вы готовы к возвращению Крокодила Данди? В третьей части этого безумно популярного фильма Мик Данди, следуя за своей подругой, журналисткой Сью Чарльстон, переселяется из деревенской глуши Австралии в модный и суетливый Лос-Анджелес. Сью возглавляет лос-анжелесский офис газеты своего отца и пытается выяснить причины гибели одного из лучших журналистов. Данди, которому надоело беспрерывно попадать в глупые и комичные ситуации, включается в журналистское расследование Сью...

Страна: Австралия, США
Студия: Bungalow Productions, Silver Lion Films, Vision View Entertainment
Продолжительность: 01:28:14
Перевод: Профессиональный (дублированный) - МОСФИЛЬМ-мастер
Роли дублировали: Тимофей Спивак, Ольга Гаспарова, Валерий Сторожик, Рудольф Панков, Олег Куценко, Андрей Казанцев, Юрий Маляров, Марина Дюжева, Алексей Рязанцев, Андрей Мартынов, Александр Рыжков, Андрей Бархударов, Сергей Балабанов, Ян Янакиев, Никита Прозоровский, Михаил Тихонов, Игорь Тарадайкин, Юрий Саранцев, Юрий Меншагин, Виктор Бохон, Борис Токарев, Ольга Плетнёва
Файл
Формат: avi
Качество: HDTVRip (HDTV1080i)
Видео: XviD, 656x352, 25fps, 1043kbps
Аудио: MPEG Layer 3, 2ch, 48000Hz, 128kbps

MediaInfo

General
Complete name : Krokodil.Dandi.3.2001.D.HDTVRip.700.MediaClub.CurHaJI.avi
Format : AVI
Format/Info : Audio Video Interleave
File size : 745 MiB
Duration : 1h 28mn
Overall bit rate : 1 181 Kbps
Movie name : Krokodil.Dandi.3.2001.D.HDTVRip.700.MediaClub.CurHaJI
Writing application : VirtualDubMod 1.5.10.3 | www.virtualdub-fr.org || (build 2550/release)
Writing library : VirtualDub build 35491/release
Video
ID : 0
Format : MPEG-4 Visual
Format profile : Advanced [email protected]
Format settings, BVOP : 1
Format settings, QPel : No
Format settings, GMC : No warppoints
Format settings, Matrix : Default (MPEG)
Codec ID : XVID
Codec ID/Hint : XviD
Duration : 1h 28mn
Bit rate : 1 043 Kbps
Width : 656 pixels
Height : 352 pixels
Display aspect ratio : 1.85:1
Frame rate : 25.000 fps
Color space : YUV
Chroma subsampling : 4:2:0
Bit depth : 8 bits
Scan type : Progressive
Compression mode : Lossy
Bits/(Pixel*Frame) : 0.181
Stream size : 658 MiB (88%)
Writing library : XviD 1.2.1 (UTC 2008-12-04)
Audio
ID : 1
Format : MPEG Audio
Format version : Version 1
Format profile : Layer 3
Codec ID : 55
Codec ID/Hint : MP3
Duration : 1h 28mn
Bit rate mode : Constant
Bit rate : 128 Kbps
Channel(s) : 2 channels
Sampling rate : 48.0 KHz
Compression mode : Lossy
Stream size : 80.8 MiB (11%)
Alignment : Aligned on interleaves
Interleave, duration : 40 ms (1.00 video frame)
Interleave, preload duration : 504 ms
Writing library : L3.99r
Encoding settings : -m s -V 4 -q 2 -lowpass 17 -b 128

Скриншоты

[Цитировать]



Показать сообщения:    

Текущее время: 04-Дек 03:00

Часовой пояс: UTC + 3


Вы не можете начинать темы
Вы не можете отвечать на сообщения
Вы не можете редактировать свои сообщения
Вы не можете удалять свои сообщения
Вы не можете голосовать в опросах
Вы не можете прикреплять файлы к сообщениям
Вы не можете скачивать файлы

!ВНИМАНИЕ!
Сайт не предоставляет электронные версии произведений, а занимается лишь коллекционированием и каталогизацией ссылок, присылаемых и публикуемых на форуме нашими читателями. Если вы являетесь правообладателем какого-либо представленного материала и не желаете, чтобы ссылка на него находилась в нашем каталоге, свяжитесь с нами, и мы незамедлительно удалим ее. Файлы для обмена на трекере предоставлены пользователями сайта, и администрация не несет ответственности за их содержание. Просьба не заливать файлы, защищенные авторскими правами, а также файлы нелегального содержания!