[ Сегодня идет свободное скачивание без начисления Download ]


Статистика раздачи
Скачал: [ 4 ]
 
   
 
Top  
 
 
-А.Барчук | Java SE - Программирование для начинающих (2013-2015) PCRec- Автор (режиссер): А.Барчук
Жанр: Разработка, Программирование
Продолжительность: 06:28:52
Качество видео: PCRec
Видеокодек: AVC
Битрейт видео: ~1012 kbps
Размер кадра: 1280 x 720
Аудиокодек: AC3 2.0
Битрейт аудио: 192 kbps (CBR), 2 Ch, 44100 Hz
Описание:
В этом видеокурсе для начинающих программировать на Java подробно рассмотрены базовые понятия и все основные средства данного языка программирования: типы данных, циклы, классы, интерфейсы, библиотеки классов, комментарии и т.д. Представленный в видеоуроках учебный материал позволит Вам легко и быстро научиться основам программирования и написать свою первую программу на Java.

Содержание видеокурса:

01. Введение в платформу Java
02. Установка и настройка JDK
03. Установка и настройка среди разработки IDEA
04. Простейшая программа на Java
05. Переменные и примитивные типы данных
06. Ссылочные типы данных
07. Комментарии
08. Константы
09. Приведение типов
10. Арифметические и Математические операции
11. Ветвление и логический тип данных
12. Логическое И, ИЛИ, НЕТ
13. Циклы
14. Методы или Функции
15. Рекурсия
16. Массивы
17. Правила именования
18. Введение в ООП
19. Создание объектов
20. Инкапсуляция
21. Конструкторы
22. Наследование
23. Полиморфизм
24. Абстрактные классы
25. Интерфейсы
26. Модификатор static
27. Перегрузка методов
28. Исключения
29. Принудительный вызов исключения
30. Введение в коллекции
31. Коллекция List
32. Коллекция Set
33. Коллекция Map
34. Скачиваем и устанавливаем Git
35. Конфигурируем Git
36. Создание локального репозитория
37. Введение в Jdbc и установка MySQL Server
38. Базовые CRUD операции
39. MySQL интеграция с Intellij IDEA
40. Connection — Получаем соединение к БД
41. Statement — Выполнение статических запросов
42. ResultSet — Получаем данные с БД
43. PrepearedStatement — Выполнение динамических скомпилированных запросов

Mediainfo:

General
Complete name : 1. Введение в платформу Java.mp4
Format : MPEG-4
Format profile : Base Media
Codec ID : isom
File size : 35.5 MiB
Duration : 4mn 6s
Overall bit rate mode : Variable
Overall bit rate : 1 208 Kbps
Writing application : Lavf56.4.102
Video
ID : 1
Format : MPEG-4 Visual
Format profile : [email protected]
Format settings, BVOP : No
Format settings, QPel : No
Format settings, GMC : No warppoints
Format settings, Matrix : Default (H.263)
Codec ID : 20
Duration : 4mn 6s
Bit rate mode : Constant
Bit rate : 1 012 Kbps
Width : 1 280 pixels
Height : 720 pixels
Display aspect ratio : 16:9
Frame rate mode : Constant
Frame rate : 30.000 fps
Color space : YUV
Chroma subsampling : 4:2:0
Bit depth : 8 bits
Scan type : Progressive
Compression mode : Lossy
Bits/(Pixel*Frame) : 0.037
Stream size : 29.8 MiB (84%)
Writing library : Lavc56.1.101
Audio
ID : 2
Format : AAC
Format/Info : Advanced Audio Codec
Format profile : LC
Codec ID : 40
Duration : 4mn 6s
Bit rate mode : Variable
Bit rate : 192 Kbps
Channel(s) : 2 channels
Channel positions : Front: L R
Sampling rate : 44.1 KHz
Compression mode : Lossy
Stream size : 5.56 MiB (16%)
Скриншоты:

[Цитировать]



Показать сообщения:    

Текущее время: 05-Дек 03:33

Часовой пояс: UTC + 3


Вы не можете начинать темы
Вы не можете отвечать на сообщения
Вы не можете редактировать свои сообщения
Вы не можете удалять свои сообщения
Вы не можете голосовать в опросах
Вы не можете прикреплять файлы к сообщениям
Вы не можете скачивать файлы

!ВНИМАНИЕ!
Сайт не предоставляет электронные версии произведений, а занимается лишь коллекционированием и каталогизацией ссылок, присылаемых и публикуемых на форуме нашими читателями. Если вы являетесь правообладателем какого-либо представленного материала и не желаете, чтобы ссылка на него находилась в нашем каталоге, свяжитесь с нами, и мы незамедлительно удалим ее. Файлы для обмена на трекере предоставлены пользователями сайта, и администрация не несет ответственности за их содержание. Просьба не заливать файлы, защищенные авторскими правами, а также файлы нелегального содержания!