[ Сегодня идет свободное скачивание без начисления Download ]


Статистика раздачи
Скачал: [ 1 ]
 
   
 
Top  
 
 
-Специалист (Сорокин) | Конфигурирование, сборка и установка ядра Linux. Обучающее видео (2014) PCRec- Автор (режиссер): Специалист (Сорокин)
Жанр: Разработка, Программирование
Продолжительность: 01:40:46
Качество видео: PCRec
Видеокодек: AVC
Битрейт видео: ~1 300 kbps
Размер кадра: 1360 x 1080
Аудиокодек: AC3 2.0
Битрейт аудио: 129 kbps (CBR), 2 Ch, 44100 Hz
Описание:
Операционная система Linux завоевала огромную популярность во всем мире, благодаря свободному распространению и возможности доработки пользователем под собственные нужды. Однако для того чтобы оценить работу на данной операционной системе и уметь настраивать ее с учетом своих потребностей, необходимо получить специальные знания. Узнайте все тонкости процесса конфигурации и сборки ядра Linux.
На занятии Вы освоите процесс сборки, конфигурирования и установки ядра операционной системы Linux. А также другие важные вопросы, касающиеся администрирования операционной системы.

Содержание:

• Причины, по которым может возникнуть необходимость в сборке ядра системы. В каких случаях это необходимо делать обязательно.
• Получение исходных кодов ядра. Версии. Развёртывание файлового дерева исходных кодов.
• В чём заключается основная трудность задачи.
• Сбор информации о системе, для которой предназначено ядро.
• Конфигурирование ядра из начальной конфигурации "в состоянии поставки", и используя в качестве основы гарантированно рабочую конфигурацию предыдущей версии.
• Модули, модульная архитектура ядра Linux.
• Компиляция и сборка ядра.
• Установка нового ядра автоматически и "вручную".
• Конфигурирование начального загрузчика для использования нового ядра.
• Рестарт системы под управление нового ядра. Проверка работоспособности.
• Что делать, если не получилось.

MediaInfo:

General
Complete name : Konfigurirovanie.sborka.i.ustanovka.jadra.Linux.mp4
Format : MPEG-4
Format profile : Base Media
Codec ID : isom
File size : 1.04 GiB
Duration : 1h 40mn
Overall bit rate : 1 479 Kbps
Writing application : Lavf56.4.102
Video
ID : 1
Format : AVC
Format/Info : Advanced Video Codec
Format profile : High@L4.0
Format settings, CABAC : Yes
Format settings, ReFrames : 4 frames
Codec ID : avc1
Codec ID/Info : Advanced Video Coding
Duration : 1h 40mn
Bit rate : 1 300 Kbps
Width : 1 360 pixels
Height : 1 080 pixels
Display aspect ratio : 5:4
Frame rate mode : Constant
Frame rate : 25.000 fps
Color space : YUV
Chroma subsampling : 4:2:0
Bit depth : 8 bits
Scan type : Progressive
Bits/(Pixel*Frame) : 0.035
Stream size : 968 MiB (91%)
Writing library : x264 core 142 r2479 dd79a61
Encoding settings : cabac=1 / ref=3 / deblock=1:0:0 / analyse=0x3:0x113 / me=hex / subme=7 / psy=1 / psy_rd=1.00:0.00 / mixed_ref=1 / me_range=16 / chroma_me=1 / trellis=1 / 8x8dct=1 / cqm=0 / deadzone=21,11 / fast_pskip=1 / chroma_qp_offset=-2 / threads=3 / lookahead_threads=1 / sliced_threads=0 / nr=0 / decimate=1 / interlaced=0 / bluray_compat=0 / constrained_intra=0 / bframes=3 / b_pyramid=2 / b_adapt=1 / b_bias=0 / direct=1 / weightb=1 / open_gop=0 / weightp=2 / keyint=250 / keyint_min=25 / scenecut=40 / intra_refresh=0 / rc_lookahead=40 / rc=abr / mbtree=1 / bitrate=1300 / ratetol=1.0 / qcomp=0.60 / qpmin=0 / qpmax=69 / qpstep=4 / ip_ratio=1.40 / aq=1:1.00
Audio
ID : 2
Format : AAC
Format/Info : Advanced Audio Codec
Format profile : LC
Codec ID : 40
Duration : 1h 40mn
Bit rate mode : Constant
Bit rate : 129 Kbps
Channel(s) : 2 channels
Channel(s)_Original : 1 channel
Channel positions : Front: C
Sampling rate : 44.1 KHz
Compression mode : Lossy
Stream size : 93.1 MiB (9%)
Скриншоты:

[Цитировать]



Показать сообщения:    

Текущее время: 08-Дек 01:14

Часовой пояс: UTC + 3


Вы не можете начинать темы
Вы не можете отвечать на сообщения
Вы не можете редактировать свои сообщения
Вы не можете удалять свои сообщения
Вы не можете голосовать в опросах
Вы не можете прикреплять файлы к сообщениям
Вы не можете скачивать файлы

!ВНИМАНИЕ!
Сайт не предоставляет электронные версии произведений, а занимается лишь коллекционированием и каталогизацией ссылок, присылаемых и публикуемых на форуме нашими читателями. Если вы являетесь правообладателем какого-либо представленного материала и не желаете, чтобы ссылка на него находилась в нашем каталоге, свяжитесь с нами, и мы незамедлительно удалим ее. Файлы для обмена на трекере предоставлены пользователями сайта, и администрация не несет ответственности за их содержание. Просьба не заливать файлы, защищенные авторскими правами, а также файлы нелегального содержания!