[ Сегодня идет свободное скачивание без начисления Download ]


Статистика раздачи
Нет
 
   
 
 
 
-MotoGP. Этап 3/18. Гран При Аргентина Термас де Рио Хондо. Гонка (2015) HDTVRip [H.264/720p] [RU, EN, ES, IT, IN]- Язык комментариев: Английский-1 (Feed), Английский-2 (BTSport), Русский (Авто+: Д.Дьяченко, А.Бойко), Испанский (Feed), Итальянский (Feed)
Русское название: Мото Гран При
Оригинальное название: Moto Grand Prix
Телекомпания: Dorna Sports S.L.
Дата: 19.04.2015
Жанр: Мотоциклетный спорт
Описание:
MotoGP - главное престижное соревнование по шоссейно-кольцевым мотогонкам на гоночных мотоциклах. В соревнованиях используют специальные мотоциклы-прототипы которые отсутствуют в свободной продаже и не разрешены к эксплуатации на дорогах общего пользования.
Мотоциклы-прототипы имеют 4-тактные моторы до 1000 см?, мощность более 240 л.с., макс. скорость более 340 км/ч. Могут быть построены хоть в единственном числе (но обычно каждый байк существует в двух готовых экземплярах — один запасной на случай замены невосстановимого повреждения основного экземпляра; также запасной мотоцикл используется для замены в том случае, когда трасса подсохла настолько, что необходимо переходить на слик). Минимальная масса мотоциклов MotoGP варьируется от 137 до 163 кг, в зависимости от количества цилиндров, но большинство предпочитает 4-цилиндровую схему, сухая масса которого примерно 158 кг.
Этап MotoGP (класс Moto Grand Prix) состоит из 4-х свободных практик, квалификации (2 сегмента) и гонки.
Места пилотов на стартовой решётке (старт с места) определяются по итогам квалификации:
- по итогам первых 3-х свободных практик лучшие 10 пилотов попадают во 2-ой сегмент квалификации напрямую, а остальные участвуют в 1-ом сегменте;
- по итогам 1-го сегмента квалификации лучшие 2 пилота попадают во 2-ой сегмент.
Зачётные очки начисляются первым 15 пилотам по системе "25-20-16-13-11-10-9-8-7-6-5-4-3-2-1".
Продолжительность: 01:42:39
Качество видео: HDTVRip
Видеокодек: MPEG-4 AVC/H.264
Битрейт видео: 5036 kbps
Размер кадра: 1280x720p 50.000 fps
Аудио:
1 (ENG): AC3; 48000 Hz; 2 ch; 384 kbps
2 (ENG): AC3; 48000 Hz; 2 ch; 192 kbps
3 (RUS): AC3; 48000 Hz; 2 ch; 192 kbps
4 (ESP): AC3; 48000 Hz; 2 ch; 192 kbps
5 (ITA): AC3; 48000 Hz; 2 ch; 192 kbps
6 (INT): AC3; 48000 Hz; 2 ch; 384 kbps

MediaInfo

Format : Matroska
Format version : Version 2
File size : 4.81 GiB
Duration : 1h 42mn
Overall bit rate : 6 706 Kbps
Encoded date : UTC 2015-04-20 15:37:54
Writing application : mkvmerge v4.7.0 ('Just Like You Imagined') сборка от Apr 21 2011 01:13:14
Writing library : libebml v1.2.0 + libmatroska v1.1.0
Video
ID : 1
Format : AVC
Format/Info : Advanced Video Codec
Format profile : High@L4.1
Format settings, CABAC : Yes
Format settings, ReFrames : 4 frames
Codec ID : V_MPEG4/ISO/AVC
Duration : 1h 42mn
Bit rate : 5 036 Kbps
Width : 1 280 pixels
Height : 720 pixels
Display aspect ratio : 16:9
Frame rate mode : Constant
Frame rate : 50.000 fps
Color space : YUV
Chroma subsampling : 4:2:0
Bit depth : 8 bits
Scan type : Progressive
Bits/(Pixel*Frame) : 0.109
Stream size : 3.61 GiB (75%)
Writing library : x264 core 138 r2358 9e941d1
Encoding settings : cabac=1 / ref=3 / deblock=1:0:0 / analyse=0x3:0x113 / me=umh / subme=9 / psy=1 / psy_rd=1.00:0.00 / mixed_ref=1 / me_range=24 / chroma_me=1 / trellis=1 / 8x8dct=1 / cqm=0 / deadzone=21,11 / fast_pskip=1 / chroma_qp_offset=-2 / threads=12 / lookahead_threads=1 / sliced_threads=0 / nr=0 / decimate=1 / interlaced=0 / bluray_compat=0 / constrained_intra=0 / bframes=3 / b_pyramid=2 / b_adapt=1 / b_bias=0 / direct=1 / weightb=1 / open_gop=0 / weightp=2 / keyint=100 / keyint_min=10 / scenecut=40 / intra_refresh=0 / rc_lookahead=40 / rc=crf / mbtree=1 / crf=21.0 / qcomp=0.60 / qpmin=0 / qpmax=69 / qpstep=4 / vbv_maxrate=20000 / vbv_bufsize=25000 / crf_max=0.0 / nal_hrd=none / ip_ratio=1.40 / aq=1:1.00
Language : English
Default : Yes
Forced : No
Audio #1
ID : 2
Format : AC-3
Format/Info : Audio Coding 3
Mode extension : CM (complete main)
Format settings, Endianness : Big
Codec ID : A_AC3
Duration : 1h 42mn
Bit rate mode : Constant
Bit rate : 384 Kbps
Channel count : 2 channels
Channel positions : Front: L R
Sampling rate : 48.0 KHz
Bit depth : 16 bits
Compression mode : Lossy
Stream size : 282 MiB (6%)
Title : Feed MotoGP
Language : English
Default : Yes
Forced : No
Audio #2
ID : 3
Format : AC-3
Format/Info : Audio Coding 3
Mode extension : CM (complete main)
Format settings, Endianness : Big
Codec ID : A_AC3
Duration : 1h 42mn
Bit rate mode : Constant
Bit rate : 192 Kbps
Channel count : 2 channels
Channel positions : Front: L R
Sampling rate : 48.0 KHz
Bit depth : 16 bits
Compression mode : Lossy
Stream size : 141 MiB (3%)
Title : BTSport
Language : English
Default : No
Forced : No
Audio #3
ID : 4
Format : AC-3
Format/Info : Audio Coding 3
Mode extension : CM (complete main)
Format settings, Endianness : Big
Codec ID : A_AC3
Duration : 1h 42mn
Bit rate mode : Constant
Bit rate : 192 Kbps
Channel count : 2 channels
Channel positions : Front: L R
Sampling rate : 48.0 KHz
Bit depth : 16 bits
Compression mode : Lossy
Stream size : 141 MiB (3%)
Language : Russian
Default : No
Forced : No
Audio #4
ID : 5
Format : AC-3
Format/Info : Audio Coding 3
Mode extension : CM (complete main)
Format settings, Endianness : Big
Codec ID : A_AC3
Duration : 1h 42mn
Bit rate mode : Constant
Bit rate : 192 Kbps
Channel count : 2 channels
Channel positions : Front: L R
Sampling rate : 48.0 KHz
Bit depth : 16 bits
Compression mode : Lossy
Stream size : 141 MiB (3%)
Language : Spanish
Default : No
Forced : No
Audio #5
ID : 6
Format : AC-3
Format/Info : Audio Coding 3
Mode extension : CM (complete main)
Format settings, Endianness : Big
Codec ID : A_AC3
Duration : 1h 42mn
Bit rate mode : Constant
Bit rate : 192 Kbps
Channel count : 2 channels
Channel positions : Front: L R
Sampling rate : 48.0 KHz
Bit depth : 16 bits
Compression mode : Lossy
Stream size : 141 MiB (3%)
Language : Italian
Default : No
Forced : No
Audio #6
ID : 7
Format : AC-3
Format/Info : Audio Coding 3
Mode extension : CM (complete main)
Format settings, Endianness : Big
Codec ID : A_AC3
Duration : 1h 42mn
Bit rate mode : Constant
Bit rate : 384 Kbps
Channel count : 2 channels
Channel positions : Front: L R
Sampling rate : 48.0 KHz
Bit depth : 16 bits
Compression mode : Lossy
Stream size : 282 MiB (6%)
Default : No
Forced : No
Скриншоты:

[Цитировать]



Показать сообщения:    

Текущее время: 11-Дек 01:24

Часовой пояс: UTC + 3


Вы не можете начинать темы
Вы не можете отвечать на сообщения
Вы не можете редактировать свои сообщения
Вы не можете удалять свои сообщения
Вы не можете голосовать в опросах
Вы не можете прикреплять файлы к сообщениям
Вы не можете скачивать файлы

!ВНИМАНИЕ!
Сайт не предоставляет электронные версии произведений, а занимается лишь коллекционированием и каталогизацией ссылок, присылаемых и публикуемых на форуме нашими читателями. Если вы являетесь правообладателем какого-либо представленного материала и не желаете, чтобы ссылка на него находилась в нашем каталоге, свяжитесь с нами, и мы незамедлительно удалим ее. Файлы для обмена на трекере предоставлены пользователями сайта, и администрация не несет ответственности за их содержание. Просьба не заливать файлы, защищенные авторскими правами, а также файлы нелегального содержания!