[ Сегодня идет свободное скачивание без начисления Download ]


Статистика раздачи
Скачал: [ 1 ]
 
   
 
Top  
 
 
Интерстеллар / Interstellar Информация о фильме
Название: Интерстеллар
Оригинальное название: Interstellar
Год выхода: 2014
Жанр: фантастика, драма, приключения
Режиссер: Кристофер Нолан
В ролях: Мэттью МакКонахи, Энн Хэтэуэй, Джессика Честейн, Маккензи Фой, Майкл Кейн, Дэвид Гяси, Уэс Бентли, Кейси Аффлек, Джон Литгоу, Мэтт Дэймон, Тофер Грэйс, Эллен Бёрстин, Элиес Габел, Тимоти Чаламет, Дэвид Ойелоуо, Коллетт Вульф, Фрэнсис З. МакКарти, Билл Ирвин, Эндрю Борба, Уильям Дивэйн
О фильме:
Когда засуха приводит человечество к продовольственному кризису, коллектив исследователей и учёных отправляется сквозь червоточину (которая предположительно соединяет области пространства-времени через большое расстояние) в путешествие, чтобы превзойти прежние ограничения для космических путешествий человека и переселить человечество на другую планету.


Страна: США, Великобритания, Канада
Продолжительность: 02:49:03
Перевод: Дублированный (Лицензия)
Файл
Кодек: AVC
Качество: BDRip 720p
Видео: 1280x720, 59.940 fps, 4452 Kbps
Звук:
48 kHz, AC3, 6 ch, 640 kbps (Дубляж, лицензия)
48 kHz, AC3, 6 ch, 640 kbps (Оригинал)
Субтитры: Русские, Русские форсированные, Английские
Семпл

От автора

"Инфа для знающих". В фильме полно сложных сцен, поэтому пришлось менять скрипт, чтобы избежать сильных артефактов. В результате был использован менее плавный шейдер (стандартный), и я долго провозился, пытаясь выжать из него максимальную плавность. В итоге получилось не плохо: в сложных сценах артефакты не бросаются в глаза, в простых - плавность близка к прошлому шейдеру (усложненный)

MediaInfo

General
Unique ID : 226427048017978516741163557111755988645 (0xAA5843610E4547C69A4D74C253A85EA5)
Complete name : J:60FPSInterstellar[60FPS by ZHz].mkv
Format : Matroska
Format version : Version 4 / Version 2
File size : 6.91 GiB
Duration : 2h 49mn
Overall bit rate : 5 848 Kbps
Encoded date : UTC 2015-03-24 13:35:24
Writing application : mkvmerge v7.5.0 ('Glass Culture') 64bit built on Jan 4 2015 16:48:44
Writing library : libebml v1.3.1 + libmatroska v1.4.2
_STATISTICS_WRITING_APP : mkvmerge v7.5.0 ('Glass Culture') 64bit built on Jan 4 2015 16:48:44
_STATISTICS_WRITING_DATE_UT : 2015-03-24 13:35:24
_STATISTICS_TAGS : BPS DURATION NUMBER_OF_FRAMES NUMBER_OF_BYTES
DURATION : 02:42:27.321000000
NUMBER_OF_FRAMES : 2023
NUMBER_OF_BYTES : 70361
Video
ID : 1
Format : AVC
Format/Info : Advanced Video Codec
Format profile : High@L4.0
Format settings, CABAC : Yes
Format settings, ReFrames : 8 frames
Codec ID : V_MPEG4/ISO/AVC
Duration : 2h 49mn
Bit rate : 4 452 Kbps
Width : 1 280 pixels
Height : 720 pixels
Display aspect ratio : 16:9
Frame rate mode : Constant
Frame rate : 59.880 fps
Original frame rate : 59.940 fps
Color space : YUV
Chroma subsampling : 4:2:0
Bit depth : 8 bits
Scan type : Progressive
Bits/(Pixel*Frame) : 0.081
Stream size : 5.26 GiB (76%)
Writing library : x264 core 144 r2525 40bb568
Encoding settings : cabac=1 / ref=8 / deblock=1:-2:-2 / analyse=0x3:0x112 / me=umh / subme=9 / psy=1 / psy_rd=1.00:0.00 / mixed_ref=0 / me_range=32 / chroma_me=1 / trellis=2 / 8x8dct=1 / cqm=0 / deadzone=21,11 / fast_pskip=1 / chroma_qp_offset=-2 / threads=12 / lookahead_threads=1 / sliced_threads=0 / nr=0 / decimate=1 / interlaced=0 / bluray_compat=0 / constrained_intra=0 / bframes=5 / b_pyramid=2 / b_adapt=2 / b_bias=0 / direct=1 / weightb=1 / open_gop=0 / weightp=2 / keyint=250 / keyint_min=25 / scenecut=40 / intra_refresh=0 / rc=crf / mbtree=0 / crf=17.0 / qcomp=0.60 / qpmin=0 / qpmax=69 / qpstep=4 / ip_ratio=1.40 / pb_ratio=1.30 / aq=1:1.00
Language : English
Default : Yes
Forced : No
_STATISTICS_WRITING_APP : mkvmerge v7.5.0 ('Glass Culture') 64bit built on Jan 4 2015 16:48:44
_STATISTICS_WRITING_DATE_UT : 2015-03-24 13:35:24
_STATISTICS_TAGS : BPS DURATION NUMBER_OF_FRAMES NUMBER_OF_BYTES
DURATION : 02:49:03.911000000
NUMBER_OF_FRAMES : 608026
NUMBER_OF_BYTES : 5786690775
Audio #1
ID : 2
Format : AC-3
Format/Info : Audio Coding 3
Mode extension : CM (complete main)
Format settings, Endianness : Big
Codec ID : A_AC3
Duration : 2h 49mn
Bit rate mode : Constant
Bit rate : 640 Kbps
Channel(s) : 6 channels
Channel positions : Front: L C R, Side: L R, LFE
Sampling rate : 48.0 KHz
Bit depth : 16 bits
Compression mode : Lossy
Stream size : 774 MiB (11%)
Title : Dub
Language : Russian
Default : Yes
Forced : No
Audio #2
ID : 3
Format : AC-3
Format/Info : Audio Coding 3
Mode extension : CM (complete main)
Format settings, Endianness : Big
Codec ID : A_AC3
Duration : 2h 49mn
Bit rate mode : Constant
Bit rate : 640 Kbps
Channel(s) : 6 channels
Channel positions : Front: L C R, Side: L R, LFE
Sampling rate : 48.0 KHz
Bit depth : 16 bits
Compression mode : Lossy
Stream size : 774 MiB (11%)
Title : Eng
Language : English
Default : No
Forced : No
Text #1
ID : 4
Format : UTF-8
Codec ID : S_TEXT/UTF8
Codec ID/Info : UTF-8 Plain Text
Title : Rus forced
Language : Russian
Default : Yes
Forced : Yes
Text #2
ID : 5
Format : UTF-8
Codec ID : S_TEXT/UTF8
Codec ID/Info : UTF-8 Plain Text
Title : Rus full
Language : Russian
Default : No
Forced : No
Text #3
ID : 6
Format : UTF-8
Codec ID : S_TEXT/UTF8
Codec ID/Info : UTF-8 Plain Text
Title : Eng full
Language : English
Default : No
Forced : No
Menu
00:00:00.000 : en:00:00:00.000
00:09:35.491 : en:00:09:35.491
00:17:12.322 : en:00:17:12.322
00:25:00.749 : en:00:25:00.749
00:35:45.393 : en:00:35:45.393
00:42:16.867 : en:00:42:16.867
00:50:19.891 : en:00:50:19.891
00:54:48.076 : en:00:54:48.076
00:58:59.702 : en:00:58:59.702
01:06:15.012 : en:01:06:15.012
01:17:28.185 : en:01:17:28.185
01:25:32.001 : en:01:25:32.001
01:34:31.999 : en:01:34:31.999
01:46:14.701 : en:01:46:14.701
01:55:34.552 : en:01:55:34.552
02:02:14.368 : en:02:02:14.368
02:12:56.843 : en:02:12:56.843
02:20:53.820 : en:02:20:53.820
02:35:12.094 : en:02:35:12.094
02:43:59.830 : en:02:43:59.830

Скриншоты

Релиз от:

[Цитировать]



Показать сообщения:    

Текущее время: 08-Дек 08:57

Часовой пояс: UTC + 3


Вы не можете начинать темы
Вы не можете отвечать на сообщения
Вы не можете редактировать свои сообщения
Вы не можете удалять свои сообщения
Вы не можете голосовать в опросах
Вы не можете прикреплять файлы к сообщениям
Вы не можете скачивать файлы

!ВНИМАНИЕ!
Сайт не предоставляет электронные версии произведений, а занимается лишь коллекционированием и каталогизацией ссылок, присылаемых и публикуемых на форуме нашими читателями. Если вы являетесь правообладателем какого-либо представленного материала и не желаете, чтобы ссылка на него находилась в нашем каталоге, свяжитесь с нами, и мы незамедлительно удалим ее. Файлы для обмена на трекере предоставлены пользователями сайта, и администрация не несет ответственности за их содержание. Просьба не заливать файлы, защищенные авторскими правами, а также файлы нелегального содержания!