[ Сегодня идет свободное скачивание без начисления Download ]


Статистика раздачи
Нет
 
   
 
Top  
 
 
Информация о фильме
Название: Заложница 3
Оригинальное название: Taken 3
Год выхода: 2014
Жанр: боевик, триллер
Режиссер: Оливье Мегатон
В ролях: Лиам Нисон, Мэгги Грэйс, Форест Уитакер, Сэм Спруэлл, Фамке Янссен, Дюгрей Скотт, Дон Харви, Дилан Бруно, Лиленд Орсер, Дэвид Уоршофски
О фильме: Жизнь бывшего правительственного агента Брайана Миллса рушится, когда его обвиняют в убийстве, которого он не совершал. Преследуемый опытным инспектором полиции, Миллс пытается отследить настоящего убийцу…

Выпущено: EuropaCorp, 20th Century Fox
Продолжительность: 01:55:18
Перевод: Дублированный (лицензия) + украинский дублированный (лицензия)
Файл
Кодек: x264
Качество: BDRip (источник: Blu-ray Disc)
Видео: 1920x804 (2,40:1), 23.976 fps, 12990 kbps
Аудио #1: AC-3, 6 ch, 448 kbps (Rus)
Аудио #2: AC-3, 6 ch, 448 kbps (Ukr)
Аудио #3: AC-3, 6 ch, 448 kbps (Eng)
Субтитры: Русские, Украинские, Английские
Скачать: сэмпл
Скриншоты

MI

General
Unique ID : 224782713248860846795462181847726069703 (0xA91B936A6CAC48E998EC35017BA497C7)
Complete name : D:Taken.3.Extended.Cut.2014.BDRip.1080p.Rus.Ukr.Eng.mkv
Format : Matroska
Format version : Version 2
File size : 11.5 GiB
Duration : 1h 55mn
Overall bit rate : 14.3 Mbps
Movie name : Заложница 3 / Taken 3 (2014) | Extended Cut
Encoded date : UTC 2015-04-21 15:07:00
Writing application : mkvmerge v5.8.0 ('No Sleep / Pillow') built on Sep 2 2012 15:37:04
Writing library : libebml v1.2.3 + libmatroska v1.3.0
Attachements : cover.png / logfile.log
Video
ID : 1
Format : AVC
Format/Info : Advanced Video Codec
Format profile : High@L4.1
Format settings, CABAC : Yes
Format settings, ReFrames : 5 frames
Codec ID : V_MPEG4/ISO/AVC
Duration : 1h 55mn
Bit rate : 13.0 Mbps
Width : 1 920 pixels
Height : 804 pixels
Display aspect ratio : 2.40:1
Frame rate mode : Constant
Frame rate : 23.976 fps
Color space : YUV
Chroma subsampling : 4:2:0
Bit depth : 8 bits
Scan type : Progressive
Bits/(Pixel*Frame) : 0.351
Stream size : 10.2 GiB (89%)
Title : Заложница 3 / Taken 3 (2014) | Extended Cut
Writing library : x264 core 146 r2538 121396c
Encoding settings : cabac=1 / ref=5 / deblock=1:-3:-3 / analyse=0x3:0x133 / me=umh / subme=11 / psy=1 / psy_rd=1.00:0.00 / mixed_ref=1 / me_range=32 / chroma_me=1 / trellis=2 / 8x8dct=1 / cqm=0 / deadzone=21,11 / fast_pskip=0 / chroma_qp_offset=-2 / threads=12 / lookahead_threads=3 / sliced_threads=0 / nr=0 / decimate=0 / interlaced=0 / bluray_compat=0 / constrained_intra=0 / bframes=10 / b_pyramid=2 / b_adapt=2 / b_bias=0 / direct=3 / weightb=1 / open_gop=0 / weightp=2 / keyint=240 / keyint_min=23 / scenecut=40 / intra_refresh=0 / rc=2pass / mbtree=0 / bitrate=12991 / ratetol=1.0 / qcomp=0.60 / qpmin=0 / qpmax=69 / qpstep=4 / cplxblur=20.0 / qblur=0.5 / ip_ratio=1.40 / pb_ratio=1.30 / aq=1:1.00
Language : English
Default : Yes
Forced : No
Audio #1
ID : 2
Format : AC-3
Format/Info : Audio Coding 3
Mode extension : CM (complete main)
Format settings, Endianness : Big
Codec ID : A_AC3
Duration : 1h 55mn
Bit rate mode : Constant
Bit rate : 448 Kbps
Channel(s) : 6 channels
Channel positions : Front: L C R, Side: L R, LFE
Sampling rate : 48.0 KHz
Bit depth : 16 bits
Compression mode : Lossy
Stream size : 369 MiB (3%)
Title : Дубляж, Blu-ray EUR
Language : Russian
Default : Yes
Forced : No
Audio #2
ID : 3
Format : AC-3
Format/Info : Audio Coding 3
Mode extension : CM (complete main)
Format settings, Endianness : Big
Codec ID : A_AC3
Duration : 1h 55mn
Bit rate mode : Constant
Bit rate : 448 Kbps
Channel(s) : 6 channels
Channel positions : Front: L C R, Side: L R, LFE
Sampling rate : 48.0 KHz
Bit depth : 16 bits
Compression mode : Lossy
Stream size : 369 MiB (3%)
Title : Дубляж, Blu-ray EUR
Language : Ukrainian
Default : No
Forced : No
Audio #3
ID : 4
Format : AC-3
Format/Info : Audio Coding 3
Mode extension : CM (complete main)
Format settings, Endianness : Big
Codec ID : A_AC3
Duration : 1h 55mn
Bit rate mode : Constant
Bit rate : 448 Kbps
Channel(s) : 6 channels
Channel positions : Front: L C R, Side: L R, LFE
Sampling rate : 48.0 KHz
Bit depth : 16 bits
Compression mode : Lossy
Stream size : 369 MiB (3%)
Title : English
Language : English
Default : No
Forced : No
Text #1
ID : 5
Format : UTF-8
Codec ID : S_TEXT/UTF8
Codec ID/Info : UTF-8 Plain Text
Title : Russian
Language : Russian
Default : No
Forced : No
Text #2
ID : 6
Format : UTF-8
Codec ID : S_TEXT/UTF8
Codec ID/Info : UTF-8 Plain Text
Title : Ukrainian
Language : Ukrainian
Default : No
Forced : No
Text #3
ID : 7
Format : UTF-8
Codec ID : S_TEXT/UTF8
Codec ID/Info : UTF-8 Plain Text
Title : English
Language : English
Default : No
Forced : No
Menu
00:00:00.000 : :Chapter 01
00:04:18.091 : :Chapter 02
00:10:12.820 : :Chapter 03
00:13:20.466 : :Chapter 04
00:15:44.985 : :Chapter 05
00:18:25.354 : :Chapter 06
00:23:18.813 : :Chapter 07
00:25:49.255 : :Chapter 08
00:27:34.861 : :Chapter 09
00:30:21.402 : :Chapter 10
00:33:01.145 : :Chapter 11
00:36:00.282 : :Chapter 12
00:38:17.795 : :Chapter 13
00:43:08.419 : :Chapter 14
00:46:46.428 : :Chapter 15
00:50:21.142 : :Chapter 16
00:55:00.338 : :Chapter 17
00:59:07.293 : :Chapter 18
01:02:49.640 : :Chapter 19
01:05:56.952 : :Chapter 20
01:07:13.862 : :Chapter 21
01:09:59.027 : :Chapter 22
01:14:26.086 : :Chapter 23
01:18:10.185 : :Chapter 24
01:22:19.517 : :Chapter 25
01:25:26.162 : :Chapter 26
01:29:38.205 : :Chapter 27
01:33:24.473 : :Chapter 28
01:37:07.571 : :Chapter 29
01:40:37.656 : :Chapter 30
01:46:48.443 : :Chapter 31
01:49:42.992 : :Chapter 32

x264

x264 [info]: frame I:1347 Avg QP:17.35 size:219515
x264 [info]: frame P:40298 Avg QP:19.94 size:102374
x264 [info]: frame B:124233 Avg QP:22.40 size: 54802
x264 [info]: consecutive B-frames: 4.1% 6.0% 9.0% 18.9% 16.3% 31.3% 7.1% 1.6% 2.3% 2.5% 0.8%

[Цитировать]



Показать сообщения:    

Текущее время: 09-Дек 16:24

Часовой пояс: UTC + 3


Вы не можете начинать темы
Вы не можете отвечать на сообщения
Вы не можете редактировать свои сообщения
Вы не можете удалять свои сообщения
Вы не можете голосовать в опросах
Вы не можете прикреплять файлы к сообщениям
Вы не можете скачивать файлы

!ВНИМАНИЕ!
Сайт не предоставляет электронные версии произведений, а занимается лишь коллекционированием и каталогизацией ссылок, присылаемых и публикуемых на форуме нашими читателями. Если вы являетесь правообладателем какого-либо представленного материала и не желаете, чтобы ссылка на него находилась в нашем каталоге, свяжитесь с нами, и мы незамедлительно удалим ее. Файлы для обмена на трекере предоставлены пользователями сайта, и администрация не несет ответственности за их содержание. Просьба не заливать файлы, защищенные авторскими правами, а также файлы нелегального содержания!