[ Сегодня идет свободное скачивание без начисления Download ]


Статистика раздачи
Нет
 
   
 
Top  
 
 
[sh]Будни аэропорта 2 / The Airport Diary 2[/sh]
Год выпуска: 2012-2014
Страна: Корея, DPS Co., Ltd., Россия
Жанр: мультсериал, детский, семейный
Продолжительность серии: ~ 00:08:35
Перевод: Профессиональный (дублированный - Студия Теремок ТВ)
Субтитры: нет-Режиссёр русской версии: Владимир Задорожный-Описание: Второй сезон полюбившегося многим детям мультфильма про самолетики. Главный герой - маленький самолетик Винки - мечтает облететь весь мир, и сейчас он как никогда близок к исполнению заветного желания! В новом сезоне Винки встретит новых друзей, увидит новые места и, конечно, переживет много приключений. Присоединяйтесь к его путешествию!-Качество: WEB-DLRip [Исходник: WEB-DL (720p)]
Формат: AVI
Видео: 720x400 (1.80:1), 25 fps, XviD build 65 ~1799 kbps avg, 0.25 bit/pixel
Аудио: 48 kHz, AC3 Dolby Digital, 2/0 (L,R) ch, ~192 kbps

Список серий


01. Винки летит за своей мечтой!
02. Винки поступает в школу 'Крылья'.
03. Гости в аэропорту Манго.
04. Азы - это очень важно!
05. Технический осмотр.
06. Любимая книга Бена.
07. Дождись меня, Сокол!
08. Слушай меня, Пеликан.
09. Не читайте мне нотации!
10. Винки и тренажер.
11. Принц и Эмили.
12. Страшная-престрашная история.
13. Самый быстрый - Пеликан!
14. Придумай себе мечту, Хэлло!
15. Низко не летать!
16. Лучший наблюдатель.
17. ДжиПиЮ и видеоигра.
18. Аэропорт Кунтанта.
19. Винки, Гром, не ссорьтесь!
20. Птица-робот и Мико.
21. Торо с озера Пу-Пу.
22. Прекрасная темнота.
23. Лучшие друзья навсегда.
24. Мы с вами!
25. Полет в тумане лести.
26. Эмили репортер.
27. Полет вверх тормашками.
28. Хитрый вор Пинч.
29. Винки учится жесткой посадке.
30. Гром присматривает за детьми.
31. Солнечная энергия Планера.
32. Как быть, если нет карты.
33. Аккуратность важнее скорости-Спасибо, mer-ci!
34. Без разрешения не летать!
35. Проявите смекалку!
36. Путешествие в соляную пустыню
37. Горе-примирители
38. Желание Кари
39. Конкурс талантов
40. Крыло со шрамом - Новый ученик
41. Трое вместе
42. Легендарный учитель
43. В поисках капитана
44. Долгий перелет
45. Мими-подражатель
46. Первый в мире самолет
47. Эмили и лунная радуга

48. Колесо героя
49. Летающие фонарики
50. Скрытая камера
51. Ой, мои уши!
52. Соня всегда хочет спать

Скриншоты

MediaInfo

GeneralComplete name : Будни аэропорта 02 сезон_Olu6ka\01. Винки летит за своей мечтой!.aviFormat : AVIFormat/Info : Audio Video InterleaveFile size : 127 MiBDuration : 8mn 52sOverall bit rate : 2 001 KbpsWriting application : VirtualDubMod 1.5.10.3Writing library : VirtualDubMod build 2550/release
VideoID : 0Format : MPEG-4 VisualFormat profile : Advanced Simple@L5Format settings, BVOP : 1Format settings, QPel : NoFormat settings, GMC : No warppointsFormat settings, Matrix : CustomCodec ID : XVIDCodec ID/Hint : XviDDuration : 8mn 52sBit rate : 1 799 KbpsWidth : 720 pixelsHeight : 400 pixelsDisplay aspect ratio : 16:9Frame rate : 25.000 fpsColor space : YUVChroma subsampling : 4:2:0Bit depth : 8 bitsScan type : ProgressiveCompression mode : LossyBits/(Pixel*Frame) : 0.250Stream size : 114 MiB (90%)Writing library : XviD 73
AudioID : 1Format : AC-3Format/Info : Audio Coding 3Mode extension : CM (complete main)Format settings, Endianness : BigCodec ID : 2000Duration : 8mn 52sBit rate mode : ConstantBit rate : 192 KbpsChannel count : 2 channelsChannel positions : Front: L RSampling rate : 48.0 KHzBit depth : 16 bitsCompression mode : LossyDelay relative to video : 8msStream size : 12.2 MiB (10%)Alignment : Split accross interleavesInterleave, duration : 40 ms (1.00 video frame)Interleave, preload duration : 500 ms

[Цитировать]

Топик был перенесен из форума Другие мультсериалы в форум Зарубежные мультфильмы
Prizr@k



Показать сообщения:    

Текущее время: 10-Дек 17:48

Часовой пояс: UTC + 3


Вы не можете начинать темы
Вы не можете отвечать на сообщения
Вы не можете редактировать свои сообщения
Вы не можете удалять свои сообщения
Вы не можете голосовать в опросах
Вы не можете прикреплять файлы к сообщениям
Вы не можете скачивать файлы

!ВНИМАНИЕ!
Сайт не предоставляет электронные версии произведений, а занимается лишь коллекционированием и каталогизацией ссылок, присылаемых и публикуемых на форуме нашими читателями. Если вы являетесь правообладателем какого-либо представленного материала и не желаете, чтобы ссылка на него находилась в нашем каталоге, свяжитесь с нами, и мы незамедлительно удалим ее. Файлы для обмена на трекере предоставлены пользователями сайта, и администрация не несет ответственности за их содержание. Просьба не заливать файлы, защищенные авторскими правами, а также файлы нелегального содержания!