[ Сегодня идет свободное скачивание без начисления Download ]


Статистика раздачи
Нет
 
   
 
Top  
 
 
Последний Москаль / Останній Москаль, Прекрасная патриотическая комедия! Год выпуска: 2015
Производство: 1+1 Production
Жанр: Комедия
Продолжительность: 00:25:00
Субтитры: Нет
Язык: Русский, украинский
Режиссёр: Горов Семен
В ролях: Юрий Горбунов, Скрипко Игорь, Горянский Владимир, Заднепровский Назар, Николаенко Владимир, Корецкая Наталья, Безрук Галина, Ирма Витовская
Описание:
Отец главного героя Валеры вынужден бежать из Москвы — его преследует мафия и ФСБ. Сына он отправляет в Украину, в глухое село, к родному дяде… Московский мажор неожиданно попадает в разные перипетии…
Привет, я – Валера Обычный сын обычного московского миллионера. Моя жизнь – это спортивные машины, элитные клубы, шикарные фотомодели. В общем, все как у людей. В один день все рухнуло! Отца обвинили в краже огромной суммы денег Все это ложь! Ничего он не крал, это называется «освоить фонды». Но с российским правосудием лучше разговаривать с берегов Великобритании. Праздник каждый день. В общем, отец сбежал, а я не успел Но оказалось, что у отца есть брат, о котором даже я ничего не знал! Вот где меня точно не найдут. Правда, для этого нужно ехать в Украину, в какие-то Карпаты, село Великие Вуйки. В общем, деньги слямзил папа, а в ссылку отправили меня. Нужно ехать в Украину, в какие-то Карпаты, село Великие Вуйки...
Так живешь себе спокойно в Карпатах, мастеришь из дерева, пьешь из источника, кормишься из леса и тут приходит беда из Москвы. «Здраствуте дядя, я буду у вас жить» За такого гостя мне жизнь совсем не стало! Его родной отец когда украл мою невесту и убежал. А теперь прислал мне живое доказательство того преступления. Раньше у меня под окном соловей пел, а теперь только слышать: «Дядя, кагда будет завтрак?»

-
Доп. информация: Реклама отсутствует!

-
Качество: SATRip
Формат: AVI
Видео кодек: XviD
Аудио кодек: MP3
Видео: 720x400, 25 fps, XviD, ~1800 kbps, 0.229 bit/pixel
Аудио: 48 kHz, MPEG Layer 3, 2 ch, 192 kbps

MI

Общее
Полное имя : U:\Сериалы (2015)\Останній Москаль (2015)\Останній Москаль.(01.seriya).2015.XviD.SATRip.by.simka.avi
Формат : AVI
Формат/Информация : Audio Video Interleave
Размер файла : 300 Мбайт
Продолжительность : 20 м.
Общий поток : 2094 Кбит/сек
Программа кодирования : VirtualDubMod 1.5.10.3 | www.virtualdub-fr.org || (build 2550/release)
Библиотека кодирования : VirtualDubMod build 2550/release
Видео
Идентификатор : 0
Формат : MPEG-4 Visual
Профиль формата : Advanced Simple@L5
Параметр BVOP формата : 1
Параметр QPel формата : Нет
Параметр GMC формата : Без точки перехода
Параметр матрицы формата : Default (MPEG)
Идентификатор кодека : XVID
Идентификатор кодека/Подсказка : XviD
Продолжительность : 20 м.
Битрейт : 1892 Кбит/сек
Ширина : 720 пикселей
Высота : 400 пикселей
Соотношение сторон : 16:9
Частота кадров : 25,000 кадров/сек
Цветовое пространство : YUV
Субдискретизация насыщенности : 4:2:0
Битовая глубина : 8 бит
Тип развёртки : Прогрессивная
Метод сжатия : С потерями
Бит/(Пиксели*Кадры) : 0.263
Размер потока : 271 Мбайт (90%)
Библиотека кодирования : XviD 1.2.1 (UTC 2008-12-04)
Аудио
Идентификатор : 1
Формат : MPEG Audio
Версия формата : Version 1
Профиль формата : Layer 3
Режим : Joint stereo
Расширение режима : MS Stereo
Идентификатор кодека : 55
Идентификатор кодека/Подсказка : MP3
Продолжительность : 20 м.
Вид битрейта : Постоянный
Битрейт : 192 Кбит/сек
Каналы : 2 канала
Частота : 48,0 КГц
Метод сжатия : С потерями
Размер потока : 27,5 Мбайт (9%)
Выравнивание : Соединение по промежуткам
Продолжительность промежутка : 40 мс. (1,00 видеокадр)
Время предзагрузки промежутка : 504 мс.
Библиотека кодирования : LAME3.99r
Настройки программы : -m j -V 4 -q 2 -lowpass 18.6 -b 192

Скриншоты

Внимание! Раздача ведётся путём добавления новых выпусков

При каждом добавлении создаётся новый торрент. Чтобы начать докачку нового выпуска, пользователям необходимо сделать следующее:
? остановить скачивание;
? удалить старый торрент у себя из клиента (старые выпуски удалять не надо);
? скачать новый торрент и запустить его у себя в клиенте вместо старого, при этом указать клиенту путь в старую папку куда и должно происходить скачивание новых выпусков;
? ваш клиент при запуске должен произвести хеширование (проверку) старой папки (если не производит сам - помогите ему сделать это), и будет докачивать только те выпуски, которых у вас ещё нет. Старые выпуски при этом не удаляются, а продолжают раздаваться!, Конец фильма!, Продолжения в понедельник если не доберется ПО http://inter.ua/ru/cinema/films/muzh_na_chas_2014 http://6.firepic.org/6/images/2014-07/30/9f572qp4ljwf.jpg
? Eсли вы уже удалили старые выпуски, то предотвратить повторную закачку старых выпусков можно, отжав галочку в соответсвующих местах при запуске нового торрента.внимания в 4-й серии отсутствует около 7 минут из за погодних условий завтра с повтора надеюсь записать и будет замена!!! Концовка есть думаю не поттера ети 7 мин


Последний раз редактировалось: Prizr@k (2015-04-24 15:41), всего редактировалось 2 раз(а)

[Цитировать]

Сериал то не Российский

[Цитировать]



Показать сообщения:    

Текущее время: 07-Дек 21:25

Часовой пояс: UTC + 3


Вы не можете начинать темы
Вы не можете отвечать на сообщения
Вы не можете редактировать свои сообщения
Вы не можете удалять свои сообщения
Вы не можете голосовать в опросах
Вы не можете прикреплять файлы к сообщениям
Вы не можете скачивать файлы

!ВНИМАНИЕ!
Сайт не предоставляет электронные версии произведений, а занимается лишь коллекционированием и каталогизацией ссылок, присылаемых и публикуемых на форуме нашими читателями. Если вы являетесь правообладателем какого-либо представленного материала и не желаете, чтобы ссылка на него находилась в нашем каталоге, свяжитесь с нами, и мы незамедлительно удалим ее. Файлы для обмена на трекере предоставлены пользователями сайта, и администрация не несет ответственности за их содержание. Просьба не заливать файлы, защищенные авторскими правами, а также файлы нелегального содержания!