[ Сегодня идет свободное скачивание без начисления Download ]


Статистика раздачи
Нет
 
   
 
Top  
 
 
[sh]Парад Победы (1945) DVDRip-AVC[/sh]
Страна: СССР
Производство: Центральная студия документальных фильмов
Жанр: документальный, короткометражка
Год выпуска: 1945
Продолжительность: 00:18:22
Перевод: Не требуется
Cубтитры: нет
Оригинальная аудиодорожка: русский
Режиссер: Николай Соловьев
Описание:
22 июня 1945 года в центральных газетах был опубликован приказ Верховного главнокомандующего ВС СССР И. В. Сталина № 370:
В ознаменование победы над Германией в Великой Отечественной войне назначаю 24 июня 1945 года в Москве на Красной площади парад войск Действующей армии, Военно-Морского Флота и Московского гарнизона — Парад Победы.
На парад вывести: сводные полки фронтов, сводный полк наркомата обороны, сводный полк Военно-морского Флота, военные академии, военные училища и войска Московского гарнизона.
Парад Победы принять моему заместителю Маршалу Советского Союза Жукову.
Командовать Парадом Победы Маршалу Советского Союза Рокоссовскому.
Общее руководство по организации парада возлагаю на командующего войсками Московского военного округа и начальника гарнизона города Москвы генерал-полковника П. А. Артемьева.
Верховный Главнокомандующий,
Маршал Советского Союза И. Сталин
Источник: DVD5 R5
Качество видео: DVDRip-AVC
Формат видео: MKV
Видео: 688->762x572 (4:3), 25 fps, H264 ~ 1693 kbps avg, 0.172 bit/pixel
Аудио: 48 kHz, Dolby Digital AC3 2.0, 192 kbps

А вы знаете, что...

Фильм снимали на цветную трофейную немецкую киноплёнку, «Agfa». Монтаж и озвучание производилось в Берлине, так как там было необходимое оборудование. По словам оператора Михаила Посельского, после того, как фильм был отснят, выяснилось, что большая часть ленты имеет брак по цвету. По этой причине весь фильм перевели на черно-белую плёнку, а из того материала который подходил по качеству, смонтировали 19-минутный фильм.
И. В. Сталин остался недоволен фильмом, так как в кадры не попали двое из десяти командующих фронтами — генералы армии Баграмян и Ерёменко (впоследствии Маршалы Советского Союза). Для того чтобы исправить оплошность, было решено доснять недостающие кадры. Однако задача осложнялась тем, что Баграмян со своим штабом находится в Риге, а генерал Ерёменко и его штаб — в Кракове. Две съёмочные группы срочно были направленны в Ригу — где находился Баграмян, и в Краков — где находился Ерёменко, где были сняты необходимые сцены, которые позже вмонтировали в окончательный вариант фильма[3]. Съёмка недостающих кадров была выполнена за чертой города. Для того чтобы скрыть отсутствующий ГУМ, генералов сняли на фоне красных знамён. Генералов сначала сняли на цветную плёнку, потом камеру перезарядили и сняли эти же эпизоды на чёрно-белую плёнку.
В 1984 году была выпущена на киноэкраны «подправленная» версия чёрно-белого фильма, из которой были удалены часть наглядной агитации, части закадрового текста и куски выступления Г. К. Жукова, прославляющие Верховного Главнокомандующего Маршала И. В. Сталина. В 2004 году была восстановлена цветная версия фильма, реставрацию фильма произвёл Российский государственный архив кинофотодокументов. С плёнки убрали все механические повреждения, был восстановлен цвет, изображение перевели на современную цветную плёнку.

MediaInfo

Общее
Полное имя : Parad.Pobedy.1945.DVDRip-AVC_[New-team]_by_AVP_Studio.mkv
Формат : Matroska
Версия формата : Version 2
Размер файла : 248 Мбайт
Продолжительность : 18 м.
Общий поток : 1887 Кбит/сек
Дата кодирования : UTC 2015-04-22 12:29:24
Программа кодирования : mkvmerge v6.1.0 ('Old Devil') built on Mar 4 2013 09:10:42
Библиотека кодирования : libebml v1.3.0 + libmatroska v1.4.0
Видео
Идентификатор : 1
Формат : AVC
Формат/Информация : Advanced Video Codec
Профиль формата : High@L4.1
Параметр CABAC формата : Да
Параметр ReFrames формата : 8 кадров
Идентификатор кодека : V_MPEG4/ISO/AVC
Продолжительность : 18 м.
Битрейт : 1693 Кбит/сек
Ширина : 688 пикселей
Высота : 572 пикселя
Соотношение сторон : 4:3
Режим частоты кадров : Постоянный
Частота кадров : 25,000 кадров/сек
Цветовое пространство : YUV
Субдискретизация насыщенности : 4:2:0
Битовая глубина : 8 бит
Тип развёртки : Прогрессивная
Бит/(Пиксели*Кадры) : 0.172
Размер потока : 218 Мбайт (88%)
Библиотека кодирования : x264 core 138 r2356 a1d3d17
Настройки программы : cabac=1 / ref=8 / deblock=1:-2:-1 / analyse=0x3:0x113 / me=umh / subme=10 / psy=1 / psy_rd=1.00:0.05 / mixed_ref=1 / me_range=32 / chroma_me=1 / trellis=2 / 8x8dct=1 / cqm=0 / deadzone=21,11 / fast_pskip=0 / chroma_qp_offset=-3 / threads=6 / lookahead_threads=1 / sliced_threads=0 / nr=0 / decimate=0 / interlaced=0 / bluray_compat=0 / constrained_intra=0 / bframes=8 / b_pyramid=2 / b_adapt=2 / b_bias=0 / direct=3 / weightb=1 / open_gop=0 / weightp=2 / keyint=250 / keyint_min=25 / scenecut=40 / intra_refresh=0 / rc=2pass / mbtree=0 / bitrate=1693 / ratetol=1.0 / qcomp=0.60 / qpmin=0 / qpmax=69 / qpstep=4 / cplxblur=20.0 / qblur=0.5 / ip_ratio=1.40 / pb_ratio=1.30 / aq=1:1.00
Default : Да
Forced : Нет
Аудио
Идентификатор : 2
Формат : AC-3
Формат/Информация : Audio Coding 3
Расширение режима : CM (complete main)
Параметр Endianness формата : Big
Идентификатор кодека : A_AC3
Продолжительность : 18 м.
Вид битрейта : Постоянный
Битрейт : 192 Кбит/сек
Каналы : 2 канала
Расположение каналов : Front: L R
Частота : 48,0 КГц
Битовая глубина : 16 бит
Метод сжатия : С потерями
Размер потока : 25,2 Мбайт (10%)
Default : Да
Forced : Нет

Скриншоты

[Цитировать]



Показать сообщения:    

Текущее время: 10-Дек 13:43

Часовой пояс: UTC + 3


Вы не можете начинать темы
Вы не можете отвечать на сообщения
Вы не можете редактировать свои сообщения
Вы не можете удалять свои сообщения
Вы не можете голосовать в опросах
Вы не можете прикреплять файлы к сообщениям
Вы не можете скачивать файлы

!ВНИМАНИЕ!
Сайт не предоставляет электронные версии произведений, а занимается лишь коллекционированием и каталогизацией ссылок, присылаемых и публикуемых на форуме нашими читателями. Если вы являетесь правообладателем какого-либо представленного материала и не желаете, чтобы ссылка на него находилась в нашем каталоге, свяжитесь с нами, и мы незамедлительно удалим ее. Файлы для обмена на трекере предоставлены пользователями сайта, и администрация не несет ответственности за их содержание. Просьба не заливать файлы, защищенные авторскими правами, а также файлы нелегального содержания!