[ Сегодня идет свободное скачивание без начисления Download ]


Статистика раздачи
Нет
 
   
 
Top  
 
 
Склифосовский (Склиф) 4 Год выпуска: 2014
Производитель : Россия, Кинокомпания "Русское"
Жанр: Драма, мелодрама
Продолжительность: 00:44:07
Cубтитры: нет
Режиссер: Юлия Краснова
В ролях: Максим Аверин, Мария Куликова, Дмитрий Миллер, Ольга Павловец, Лаура Кеосаян, Марина Могилевская, Андрей Барило, Владимир Жеребцов, Константин Юшкевич, Антон Эльдаров, Александр Сирин, Анна Якунина, Екатерина Травова, Александр Чернявский, Надежда Горелова, Владимир Довжик, Евгения Дмитриева, Елена Яковлева, Евгений Михеев, Сергей Жигунов, Евгения Калинец, Владимир Кошеваров, Андрей Гусев, Максим Битюков, Пётр Кудряшов, Наталья Чернявская
Описание:
4 сезон легендарного сериала «Склифосовский». Телезрители вновь встретятся с героем Максима Аверина – выдающимся хирургом – и его экранными коллегами, порадуются их успехам и посочувствуют в сложных ситуациях.На первом месте у героев, как и прежде, напряженная работа – спасение человеческих жизней. Но и в личной жизни им предстоит немало испытаний.Брагина ждет новая семейная жизнь –с любимой женщиной Мариной Нарочинской. Однако, обрести покой и счастье им будет совсем непросто. Серьёзной проверкой отношений станет появление в их жизни незаконнорожденной дочери Брагина Вероники – подростка с трудным характером.

Качество: WEBRip 720p
Формат: MKV
Видео кодек: H.264
Аудио кодек: AC-3
Видео: MPEG4 Video (H264) 1280x720, ~ 1800 kbps, 25.00fps, 0.078 bit/pixel
Аудио: AC-3, 2 канала, 44,1 КГц, ~192 kbps, VBR
Сторонней рекламы нет!

MediaInfo

ОбщееУникальный идентификатор : 220752866629101159191855165854596073942 (0xA61374A32FC8B7EA973047B2913A09D6)Полное имя : F:\Sklifosovskiy.4.2015.WEB-DL.720.Files-x\01.Sklifosovskiy.4.2015.WEB-DL.720.Files-x.mkvФормат : MatroskaРазмер файла : 640 МбайтПродолжительность : 44 м.Общий поток : 1996 Кбит/секПрограмма кодирования : Lavf54.63.104Библиотека кодирования : Lavf54.63.104
ВидеоИдентификатор : 1Формат : AVCФормат/Информация : Advanced Video CodecПрофиль формата : [email protected] CABAC формата : ДаПараметр ReFrames формата : 3 кадраИдентификатор кодека : V_MPEG4/ISO/AVCПродолжительность : 44 м.Битрейт : 1800 Кбит/секШирина : 1280 пикс.Высота : 720 пикс.Соотношение сторон : 16:9Частота кадров : 25,000 кадр/секЦветовое пространство : YUVПодвыборка цветности : 4:2:0Битовая глубина : 8 битТип развёртки : ПрогрессивнаяБит/(Пиксели*Кадры) : 0.078Размер потока : 566 Мбайт (88%)Библиотека кодирования : x264 core 142 r2389 956c8d8Настройки программы : cabac=1 / ref=3 / deblock=1:0:0 / analyse=0x3:0x133 / me=umh / subme=7 / psy=1 / psy_rd=1.00:0.00 / mixed_ref=1 / me_range=32 / chroma_me=1 / trellis=2 / 8x8dct=1 / cqm=0 / deadzone=21,11 / fast_pskip=1 / chroma_qp_offset=-2 / threads=12 / lookahead_threads=2 / sliced_threads=0 / nr=0 / decimate=1 / interlaced=0 / bluray_compat=0 / constrained_intra=0 / bframes=0 / weightp=0 / keyint=75 / keyint_min=26 / scenecut=40 / intra_refresh=0 / rc_lookahead=50 / rc=2pass / mbtree=0 / bitrate=1800 / ratetol=1.0 / qcomp=0.20 / qpmin=10 / qpmax=51 / qpstep=4 / cplxblur=20.0 / qblur=0.5 / vbv_maxrate=2000 / vbv_bufsize=2000 / nal_hrd=none / filler=0 / ip_ratio=1.40 / aq=1:1.00Язык : EnglishОсновные цвета : BT.709-5, BT.1361, IEC 61966-2-4, SMPTE RP177Характеристики трансфера : BT.709-5, BT.1361Коэффициенты матрицы : BT.709-5, BT.1361, IEC 61966-2-4 709, SMPTE RP177
АудиоИдентификатор : 2Формат : AC-3Формат/Информация : Audio Coding 3Расширение режима : CM (complete main)Идентификатор кодека : A_AC3Продолжительность : 44 м.Вид битрейта : ПостоянныйБитрейт : 192 Кбит/секКаналы : 2 каналаРасположение каналов : Front: L RЧастота : 44,1 КГцБитовая глубина : 16 битМетод сжатия : С потерямиРазмер потока : 61,6 Мбайт (10%)Язык : English

Внимание ! Раздача ведётся путём добавления новых серий

Внимание! Раздача ведётся путём добавления новых серий; при каждом добавлении создётся новый торрент. Чтобы начать докачку новой серии, пользователям необходимо сделать следующее:
(1) остановить скачивание,
(2) удалить старый торрент у себя из клиента (старые серии удалять не надо),
(3) скачать новый торрент и запустить его у себя в клиенте вместо старого, при этом указать клиенту путь в старую папку куда и должно происходить скачивание новых серий.
Ваш клиент при этом должен произвести хеширование (проверку) старой папки (если не производит сам - помогите ему сделать это), и будет докачивать только те серии которых у вас ещё нет. Старые серии при этом не удаляются, а продолжают раздаваться!
Eсли вы уже удалили старые серии, то предотвратить повторную закачку старых серий можно, отжав галочку в соответсвующих местах при запуске нового торрента. По возможности, желательно не удалять старые серии как можно дольше чтобы релизёр не столько продолжал раздавать старые серии, а смог сконцентрироваться на новых.

Скриншоты

[Цитировать]



Показать сообщения:    

Текущее время: 07-Дек 00:56

Часовой пояс: UTC + 3


Вы не можете начинать темы
Вы не можете отвечать на сообщения
Вы не можете редактировать свои сообщения
Вы не можете удалять свои сообщения
Вы не можете голосовать в опросах
Вы не можете прикреплять файлы к сообщениям
Вы не можете скачивать файлы

!ВНИМАНИЕ!
Сайт не предоставляет электронные версии произведений, а занимается лишь коллекционированием и каталогизацией ссылок, присылаемых и публикуемых на форуме нашими читателями. Если вы являетесь правообладателем какого-либо представленного материала и не желаете, чтобы ссылка на него находилась в нашем каталоге, свяжитесь с нами, и мы незамедлительно удалим ее. Файлы для обмена на трекере предоставлены пользователями сайта, и администрация не несет ответственности за их содержание. Просьба не заливать файлы, защищенные авторскими правами, а также файлы нелегального содержания!