[ Сегодня идет свободное скачивание без начисления Download ]


Статистика раздачи
Нет
 
   
 
Top  
 
 
[sh]Идентификация Борна / The Bourne Identity[/sh]
«He was the perfect weapon until he became the target.» ? Год выпуска: 2002
? Страна: США, Германия, Чехия
? Производство: Universal Pictures, Kennedy/Marshall Company, The, Hypnotic See more
? Жанр: боевик, триллер, криминал, детектив
? Режиссер: Даг Лайман
? В ролях: Мэтт Дэймон, Франка Потенте, Крис Купер, Клайв Оуэн, Брайан Кокс, Адевале Акиннуойе-Агбадже, Гэбриел Манн, Уолтон Гоггинс, Джош Хэмилтон...
? Перевод: Профессиональный (полное дублирование) [Русский] + Оригинал [Английский] + Русский авторский перевод (А. Гаврилов) + Английский (Комментарии режиссера)
? Субтитры: Нет
? Описание: Команда итальянского рыболовецкого судна находит в водах Средиземного моря тело мужчины. У него два пулевых ранения в спине и имплантированный в бедро микрофильм, помеченный номером швейцарского банка. Когда незнакомец приходит в себя, оказывается, что он не помнит кто он, и что с ним случилось, однако он может говорить на нескольких языках и обладает другими необычными способностями.
Получив в Цюрихе деньги с указанного банковского счета, он узнает свое имя Джейсон Борн. Но настоящее это его имя или нет? Пытаясь восстановить свое прошлое, он находит свой адрес в Париже, но вместе с этим понимает, что отслеживается убийцей. Борн уговаривает немецкую студентку Мэри отвезти его в Париж, чтобы выяснить все о своем прошлом и понять, кто хочет его убить…

? Качество: BDRip
? Продолжительность: 01:58:17
? Формат: AVI
? Видео кодек: XviD
? Аудио кодек: AC3
? Видео: 720x304 (2.35:1), XviD, ~1726 kbps avg, 0.329 bit/pixel
? Аудио: 48 kHz, 6 ch, ~448.00 kbps avg - |DUB|
? Аудио: 48 kHz, 6 ch, ~384.00 kbps avg - |DUB|
? Аудио: 48 kHz, 2 ch, ~192.00 kbps avg - |Comments|
? Аудио: 48 kHz, 6 ch, ~448.00 kbps avg - |ENG|

Media Info

General
Complete name                    : D:\The.Bourne.1.2.3.4\Identifikacija.Borna.2002\Identifikacija.Borna.2002.DUAL.BDRip.XviD.AC3.-HQ-ViDEO.avi
Format                           : AVI
Format/Info                      : Audio Video Interleave
Format profile                   : OpenDML
File size                        : 2.18 GiB
Duration                         : 1h 58mn
Overall bit rate                 : 2 640 Kbps
Movie name                       : Идентификация Борна / Bourne Identity, The (2002)
Director                         : Shevon (BDRemux)
Writing application              : VirtualDubMod 1.5.10.2 (build 2542/release)
Copyright                        : HQ-ViDEO (www.hq-video.ru)
Comment                          : 14.09.2009
Video
ID                               : 0
Format                           : MPEG-4 Visual
Format profile                   : Advanced Simple@L5
Format settings, BVOP            : 1
Format settings, QPel            : No
Format settings, GMC             : No warppoints
Format settings, Matrix          : Custom
Codec ID                         : XVID
Codec ID/Hint                    : XviD
Duration                         : 1h 58mn
Bit rate                         : 1 726 Kbps
Width                            : 720 pixels
Height                           : 304 pixels
Display aspect ratio             : 2.35:1
Frame rate                       : 23.976 fps
Color space                      : YUV
Chroma subsampling               : 4:2:0
Bit depth                        : 8 bits
Scan type                        : Progressive
Compression mode                 : Lossy
Bits/(Pixel*Frame)               : 0.329
Stream size                      : 1.43 GiB (65%)
Writing library                  : XviD 1.2.1 (UTC 2008-12-04)
Audio #1
ID                               : 1
Format                           : AC-3
Format/Info                      : Audio Coding 3
Mode extension                   : CM (complete main)
Codec ID                         : 2000
Duration                         : 1h 58mn
Bit rate mode                    : Constant
Bit rate                         : 448 Kbps
Channel(s)                       : 6 channels
Channel positions                : Front: L C R, Side: L R, LFE
Sampling rate                    : 48.0 KHz
Bit depth                        : 16 bits
Compression mode                 : Lossy
Stream size                      : 379 MiB (17%)
Alignment                        : Split accross interleaves
Interleave, duration             : 42 ms (1.00 video frame)
Interleave, preload duration     : 500 ms
Audio #2
ID                               : 2
Format                           : AC-3
Format/Info                      : Audio Coding 3
Mode extension                   : CM (complete main)
Codec ID                         : 2000
Duration                         : 1h 58mn
Bit rate mode                    : Constant
Bit rate                         : 448 Kbps
Channel(s)                       : 6 channels
Channel positions                : Front: L C R, Side: L R, LFE
Sampling rate                    : 48.0 KHz
Bit depth                        : 16 bits
Compression mode                 : Lossy
Stream size                      : 379 MiB (17%)
Alignment                        : Split accross interleaves
Interleave, duration             : 42 ms (1.00 video frame)
Interleave, preload duration     : 500 ms
General
Complete name                    : D:\The.Bourne.1.2.3.4\Identifikacija.Borna.2002\Identifikacija.Borna.2002.DUAL.BDRip.XviD.AC3.-HQ-ViDEO.ENG[Comments].ac3
Format                           : AC-3
Format/Info                      : Audio Coding 3
File size                        : 162 MiB
Duration                         : 1h 58mn
Overall bit rate                 : 192 Kbps
Audio
Format                           : AC-3
Format/Info                      : Audio Coding 3
Format profile                   : Dolby Digital
Mode extension                   : CM (complete main)
Duration                         : 1h 58mn
Bit rate mode                    : Constant
Bit rate                         : 192 Kbps
Channel(s)                       : 2 channels
Channel positions                : Front: L R
Sampling rate                    : 48.0 KHz
Bit depth                        : 16 bits
Compression mode                 : Lossy
Stream size                      : 162 MiB (100%)
General
Complete name                    : D:\The.Bourne.1.2.3.4\Identifikacija.Borna.2002\Identifikacija.Borna.2002.DUAL.BDRip.XviD.AC3.-HQ-ViDEO.RUS.AVO[Gavrilov].ac3
Format                           : AC-3
Format/Info                      : Audio Coding 3
File size                        : 325 MiB
Duration                         : 1h 58mn
Overall bit rate                 : 384 Kbps
Audio
Format                           : AC-3
Format/Info                      : Audio Coding 3
Mode extension                   : CM (complete main)
Duration                         : 1h 58mn
Bit rate mode                    : Constant
Bit rate                         : 384 Kbps
Channel(s)                       : 6 channels
Channel positions                : Front: L C R, Side: L R, LFE
Sampling rate                    : 48.0 KHz
Bit depth                        : 16 bits
Compression mode                 : Lossy
Stream size                      : 325 MiB (100%)

Скриншоты



[sh]Превосходство Борна / The Bourne Supremacy[/sh]
«Они украли у него жизнь. Он хочет ее вернуть.» ? Год выпуска: 2004
? Страна: США, Германия
? Производство: Universal Pictures
? Жанр: боевик, триллер, криминал
? Режиссер: Пол Гринграсс
? В ролях: Мэтт Дэймон, Франка Потенте, Брайан Кокс, Джулия Стайлз, Карл Урбан, Гэбриел Манн, Джоан Аллен, Мартон Чокаш, Том Галлоп...
? Перевод: Профессиональный (полное дублирование) [Русский] + Оригинал [Английский] + Русский авторский перевод (А. Гаврилов) + Русский авторский перевод (Ю. Живов) + Профессиональный (полное дублирование) [Украинский]+ Английский (Комментарии режиссера)
? Субтитры: Нет
? Описание: Суперагент ЦРУ Джейсон Борн вновь оказывается подставленным и вынужден помимо возложенной на него задачи государственного значения спасать себя, а заодно и других небезразличных ему людей.
В процессе выполнения миссии судьба заносит Борна в Россию, где его ждет множество характерных для страны, но непривычных западному человеку сюрпризов.

? Качество: BDRip
? Продолжительность: 01:48:31
? Формат: AVI
? Видео кодек: XviD
? Аудио кодек: AC3
? Видео: 720x304 (2.35:1), XviD, ~1966 kbps avg, 0.375 bit/pixel
? Аудио: 48 kHz, 6 ch, ~448.00 kbps avg - |DUB|
? Аудио: 48 kHz, 6 ch, ~384.00 kbps avg - |DUB|
? Аудио: 48 kHz, 6 ch, ~384.00 kbps avg - |DUB|
? Аудио: 48 kHz, 6 ch, ~256.00 kbps avg - |DUB|
? Аудио: 48 kHz, 2 ch, ~192.00 kbps avg - |Comments|
? Аудио: 48 kHz, 6 ch, ~448.00 kbps avg - |ENG|

Media Info

General
Complete name                    : D:\The.Bourne.1.2.3.4\Prevoshodstvo.Borna.2004\Prevoshodstvo.Borna.2004.DUAL.BDRip.XviD.AC3.-HQ-ViDEO.avi
Format                           : AVI
Format/Info                      : Audio Video Interleave
Format profile                   : OpenDML
File size                        : 2.18 GiB
Duration                         : 1h 48mn
Overall bit rate                 : 2 880 Kbps
Movie name                       : Превосходство Борна / Bourne Supremacy, The
Director                         : Shevon (Blu-Ray)
Writing application              : VirtualDubMod 1.5.10.2 (build 2542/release)
Copyright                        : HQ-ViDEO (www.hq-video.ru)
Comment                          : 10.09.09
Video
ID                               : 0
Format                           : MPEG-4 Visual
Format profile                   : Advanced Simple@L5
Format settings, BVOP            : 1
Format settings, QPel            : No
Format settings, GMC             : No warppoints
Format settings, Matrix          : Custom
Codec ID                         : XVID
Codec ID/Hint                    : XviD
Duration                         : 1h 48mn
Bit rate                         : 1 966 Kbps
Width                            : 720 pixels
Height                           : 304 pixels
Display aspect ratio             : 2.35:1
Frame rate                       : 23.976 fps
Color space                      : YUV
Chroma subsampling               : 4:2:0
Bit depth                        : 8 bits
Scan type                        : Progressive
Compression mode                 : Lossy
Bits/(Pixel*Frame)               : 0.375
Stream size                      : 1.49 GiB (68%)
Writing library                  : XviD 1.2.1 (UTC 2008-12-04)
Audio #1
ID                               : 1
Format                           : AC-3
Format/Info                      : Audio Coding 3
Mode extension                   : CM (complete main)
Codec ID                         : 2000
Duration                         : 1h 48mn
Bit rate mode                    : Constant
Bit rate                         : 448 Kbps
Channel(s)                       : 6 channels
Channel positions                : Front: L C R, Side: L R, LFE
Sampling rate                    : 48.0 KHz
Bit depth                        : 16 bits
Compression mode                 : Lossy
Stream size                      : 348 MiB (16%)
Alignment                        : Split accross interleaves
Interleave, duration             : 42 ms (1.00 video frame)
Interleave, preload duration     : 500 ms
Audio #2
ID                               : 2
Format                           : AC-3
Format/Info                      : Audio Coding 3
Mode extension                   : CM (complete main)
Codec ID                         : 2000
Duration                         : 1h 48mn
Bit rate mode                    : Constant
Bit rate                         : 448 Kbps
Channel(s)                       : 6 channels
Channel positions                : Front: L C R, Side: L R, LFE
Sampling rate                    : 48.0 KHz
Bit depth                        : 16 bits
Compression mode                 : Lossy
Stream size                      : 348 MiB (16%)
Alignment                        : Split accross interleaves
Interleave, duration             : 42 ms (1.00 video frame)
Interleave, preload duration     : 500 ms
General
Complete name                    : D:\The.Bourne.1.2.3.4\Prevoshodstvo.Borna.2004\Prevoshodstvo.Borna.2004.DUAL.BDRip.XviD.AC3.-HQ-ViDEO.ENG[Comments].ac3
Format                           : AC-3
Format/Info                      : Audio Coding 3
File size                        : 149 MiB
Duration                         : 1h 48mn
Overall bit rate                 : 192 Kbps
Audio
Format                           : AC-3
Format/Info                      : Audio Coding 3
Format profile                   : Dolby Digital
Mode extension                   : CM (complete main)
Duration                         : 1h 48mn
Bit rate mode                    : Constant
Bit rate                         : 192 Kbps
Channel(s)                       : 2 channels
Channel positions                : Front: L R
Sampling rate                    : 48.0 KHz
Bit depth                        : 16 bits
Compression mode                 : Lossy
Stream size                      : 149 MiB (100%)
General
Complete name                    : D:\The.Bourne.1.2.3.4\Prevoshodstvo.Borna.2004\Prevoshodstvo.Borna.2004.DUAL.BDRip.XviD.AC3.-HQ-ViDEO.RUS.AVO.Gavrilov.ac3
Format                           : AC-3
Format/Info                      : Audio Coding 3
File size                        : 298 MiB
Duration                         : 1h 48mn
Overall bit rate                 : 384 Kbps
Audio
Format                           : AC-3
Format/Info                      : Audio Coding 3
Mode extension                   : CM (complete main)
Duration                         : 1h 48mn
Bit rate mode                    : Constant
Bit rate                         : 384 Kbps
Channel(s)                       : 6 channels
Channel positions                : Front: L C R, Side: L R, LFE
Sampling rate                    : 48.0 KHz
Bit depth                        : 16 bits
Compression mode                 : Lossy
Stream size                      : 298 MiB (100%)
General
Complete name                    : D:\The.Bourne.1.2.3.4\Prevoshodstvo.Borna.2004\Prevoshodstvo.Borna.2004.DUAL.BDRip.XviD.AC3.-HQ-ViDEO.RUS.AVO.UKR.ac3
Format                           : AC-3
Format/Info                      : Audio Coding 3
File size                        : 199 MiB
Duration                         : 1h 48mn
Overall bit rate                 : 256 Kbps
Audio
Format                           : AC-3
Format/Info                      : Audio Coding 3
Mode extension                   : CM (complete main)
Duration                         : 1h 48mn
Bit rate mode                    : Constant
Bit rate                         : 256 Kbps
Channel(s)                       : 2 channels
Channel positions                : Front: L R
Sampling rate                    : 48.0 KHz
Bit depth                        : 16 bits
Compression mode                 : Lossy
Stream size                      : 199 MiB (100%)
General
Complete name                    : D:\The.Bourne.1.2.3.4\Prevoshodstvo.Borna.2004\Prevoshodstvo.Borna.2004.DUAL.BDRip.XviD.AC3.-HQ-ViDEO.RUS.AVO.Zhivov.ac3
Format                           : AC-3
Format/Info                      : Audio Coding 3
File size                        : 298 MiB
Duration                         : 1h 48mn
Overall bit rate                 : 384 Kbps
Audio
Format                           : AC-3
Format/Info                      : Audio Coding 3
Mode extension                   : CM (complete main)
Duration                         : 1h 48mn
Bit rate mode                    : Constant
Bit rate                         : 384 Kbps
Channel(s)                       : 6 channels
Channel positions                : Front: L C R, Side: L R, LFE
Sampling rate                    : 48.0 KHz
Bit depth                        : 16 bits
Compression mode                 : Lossy
Stream size                      : 298 MiB (100%)

Скриншоты



[sh]Ультиматум Борна / The Bourne Ultimatum[/sh]
«Вспомнить все. Не прощать ничего.» ? Год выпуска: 2007
? Страна: США, Германия
? Производство: Universal Pictures
? Жанр: боевик, триллер, криминал
? Режиссер: Пол Гринграсс
? В ролях: Мэтт Дэймон, Джулия Стайлз, Дэвид Стрэтэйрн, Скотт Гленн, Пэдди Консидайн, Эдгар Рамирез, Альберт Финни, Джоан Аллен...
? Перевод: Профессиональный (полное дублирование) [Русский] + Оригинал [Английский] + Русский авторский перевод (А. Гаврилов) + Русский авторский перевод (Гланц, Королева)
? Субтитры: Нет
? Описание: Он хотел одного — исчезнуть. Вместо этого за Борном теперь охотятся люди, которые сделали его таким, какой он есть. Он потерял память и человека, которого он любил. Но его не удается сдержать даже новому поколению профессиональных убийц. У него только одна цель: вернуться к началу и узнать кем он был, Джейсон Борн.
Он мечется от Москвы к Парижу, через Мадрид и Лондон в Танжер и Нью-Йорк, пытаясь раскрыть последние загадки своего прошлого, в то время, как правительственные агенты и Интерпол пытаются помешать ему восстановить всю картину до конца.

? Качество: BDRip
? Продолжительность: 01:55:19
? Формат: AVI
? Видео кодек: XviD
? Аудио кодек: AC3
? Видео: 720x304 (2.35:1), XviD, ~1795 kbps avg, 0.342 bit/pixel
? Аудио: 48 kHz, 6 ch, ~448.00 kbps avg - |DUB|
? Аудио: 48 kHz, 6 ch, ~448.00 kbps avg - |DUB|
? Аудио: 48 kHz, 6 ch, ~448.00 kbps avg - |DUB|
? Аудио: 48 kHz, 6 ch, ~448.00 kbps avg - |ENG|

Media Info

General
Complete name                    : D:\The.Bourne.1.2.3.4\Ultimatum.Borna.2007\Ultimatum.Borna.2007.DUAL.BDRip.XviD.AC3.-HQ-ViDEO.avi
Format                           : AVI
Format/Info                      : Audio Video Interleave
Format profile                   : OpenDML
File size                        : 2.18 GiB
Duration                         : 1h 55mn
Overall bit rate                 : 2 709 Kbps
Movie name                       : Ультиматум Борна / The Bourne Ultimatum (2007)
Director                         : Shevon (BDRemux)
Writing application              : VirtualDubMod 1.5.10.2 (build 2542/release)
Copyright                        : HQ-ViDEO (www.hq-video.ru)
Comment                          : 19.09.2009
Video
ID                               : 0
Format                           : MPEG-4 Visual
Format profile                   : Advanced Simple@L5
Format settings, BVOP            : 1
Format settings, QPel            : No
Format settings, GMC             : No warppoints
Format settings, Matrix          : Custom
Codec ID                         : XVID
Codec ID/Hint                    : XviD
Duration                         : 1h 55mn
Bit rate                         : 1 795 Kbps
Width                            : 720 pixels
Height                           : 304 pixels
Display aspect ratio             : 2.35:1
Frame rate                       : 23.976 fps
Color space                      : YUV
Chroma subsampling               : 4:2:0
Bit depth                        : 8 bits
Scan type                        : Progressive
Compression mode                 : Lossy
Bits/(Pixel*Frame)               : 0.342
Stream size                      : 1.45 GiB (66%)
Writing library                  : XviD 1.2.1 (UTC 2008-12-04)
Audio #1
ID                               : 1
Format                           : AC-3
Format/Info                      : Audio Coding 3
Mode extension                   : CM (complete main)
Codec ID                         : 2000
Duration                         : 1h 55mn
Bit rate mode                    : Constant
Bit rate                         : 448 Kbps
Channel(s)                       : 6 channels
Channel positions                : Front: L C R, Side: L R, LFE
Sampling rate                    : 48.0 KHz
Bit depth                        : 16 bits
Compression mode                 : Lossy
Stream size                      : 370 MiB (17%)
Alignment                        : Split accross interleaves
Interleave, duration             : 42 ms (1.00 video frame)
Interleave, preload duration     : 500 ms
Audio #2
ID                               : 2
Format                           : AC-3
Format/Info                      : Audio Coding 3
Mode extension                   : CM (complete main)
Codec ID                         : 2000
Duration                         : 1h 55mn
Bit rate mode                    : Constant
Bit rate                         : 448 Kbps
Channel(s)                       : 6 channels
Channel positions                : Front: L C R, Side: L R, LFE
Sampling rate                    : 48.0 KHz
Bit depth                        : 16 bits
Compression mode                 : Lossy
Stream size                      : 370 MiB (17%)
Alignment                        : Split accross interleaves
Interleave, duration             : 42 ms (1.00 video frame)
Interleave, preload duration     : 500 ms
General
Complete name                    : D:\The.Bourne.1.2.3.4\Ultimatum.Borna.2007\Ultimatum.Borna.2007.DUAL.BDRip.XviD.AC3.-HQ-ViDEO.RUS.AVOGavrilov.ac3
Format                           : AC-3
Format/Info                      : Audio Coding 3
File size                        : 370 MiB
Duration                         : 1h 55mn
Overall bit rate                 : 448 Kbps
Audio
Format                           : AC-3
Format/Info                      : Audio Coding 3
Mode extension                   : CM (complete main)
Duration                         : 1h 55mn
Bit rate mode                    : Constant
Bit rate                         : 448 Kbps
Channel(s)                       : 6 channels
Channel positions                : Front: L C R, Side: L R, LFE
Sampling rate                    : 48.0 KHz
Bit depth                        : 16 bits
Compression mode                 : Lossy
Stream size                      : 370 MiB (100%)
General
Complete name                    : D:\The.Bourne.1.2.3.4\Ultimatum.Borna.2007\Ultimatum.Borna.2007.DUAL.BDRip.XviD.AC3.-HQ-ViDEO.RUS.MVO.Glanc&Koroleva.ac3
Format                           : AC-3
Format/Info                      : Audio Coding 3
File size                        : 370 MiB
Duration                         : 1h 55mn
Overall bit rate                 : 448 Kbps
Audio
Format                           : AC-3
Format/Info                      : Audio Coding 3
Mode extension                   : CM (complete main)
Duration                         : 1h 55mn
Bit rate mode                    : Constant
Bit rate                         : 448 Kbps
Channel(s)                       : 6 channels
Channel positions                : Front: L C R, Side: L R, LFE
Sampling rate                    : 48.0 KHz
Bit depth                        : 16 bits
Compression mode                 : Lossy
Stream size                      : 370 MiB (100%)

Скриншоты



[sh]Эволюция Борна / The Bourne Legacy[/sh]
«В игре всегда несколько фигур» ? Год выпуска: 2012
? Страна: США,
? Производство: Bourne Four Productions, Universal Pictures
? Жанр: боевик, триллер, детектив, приключения
? Режиссер: Тони Гилрой
? В ролях: Джереми Реннер, Рейчел Вайс, Эдвард Нортон, Джоан Аллен, Альберт Финни, Скотт Гленн, Стейси Кич, Донна Мерфи, Майкл Чернус, Кори Столл
? Перевод: Профессиональный (полное дублирование) [Русский]
? Субтитры: Нет
? Описание: В игре всегда несколько фигур. Одна из них — Джейсон Борн, другая — совершенный агент Аарон Кросс. Их возможности безграничны. Но даже у идеального оружия бывают сбои…

? Качество: BDRip
? Продолжительность: 02:15:02
? Формат: AVI
? Видео кодек: XviD
? Аудио кодек: AC3
? Видео: 720x304 (2.35:1), XviD, ~1919 kbps avg, 0.366 bit/pixel
? Аудио: 48 kHz, 6 ch, ~384.00 kbps avg - |DUB|

Media Info

General
Complete name                    : D:\The.Bourne.1.2.3.4\Evolyutsiya.Borna.2012.avi
Format                           : AVI
Format/Info                      : Audio Video Interleave
Format profile                   : OpenDML
File size                        : 2.18 GiB
Duration                         : 2h 15mn
Overall bit rate                 : 2 315 Kbps
Movie name                       : The Bourne Legacy (2012)
Director                         : Vaippp
Genre                            : Action/Thriller
Writing application              : VirtualDubModRus 1.5.10.2 (build 2542/release)
Writing library                  : VirtualDubMod build 2542/release
Original source form/Name        : Movie
Copyright                        : HQ-ViDEO
Comment                          : BDRip
Video
ID                               : 0
Format                           : MPEG-4 Visual
Format profile                   : Advanced Simple@L5
Format settings, BVOP            : 1
Format settings, QPel            : No
Format settings, GMC             : No warppoints
Format settings, Matrix          : Custom
Codec ID                         : XVID
Codec ID/Hint                    : XviD
Duration                         : 2h 15mn
Bit rate                         : 1 919 Kbps
Width                            : 720 pixels
Height                           : 304 pixels
Display aspect ratio             : 2.35:1
Frame rate                       : 23.976 fps
Color space                      : YUV
Chroma subsampling               : 4:2:0
Bit depth                        : 8 bits
Scan type                        : Progressive
Compression mode                 : Lossy
Bits/(Pixel*Frame)               : 0.366
Stream size                      : 1.81 GiB (83%)
Writing library                  : XviD 73
Audio
ID                               : 1
Format                           : AC-3
Format/Info                      : Audio Coding 3
Mode extension                   : CM (complete main)
Codec ID                         : 2000
Duration                         : 2h 14mn
Bit rate mode                    : Constant
Bit rate                         : 384 Kbps
Channel(s)                       : 6 channels
Channel positions                : Front: L C R, Side: L R, LFE
Sampling rate                    : 48.0 KHz
Bit depth                        : 16 bits
Compression mode                 : Lossy
Stream size                      : 371 MiB (17%)
Alignment                        : Split accross interleaves
Interleave, duration             : 42 ms (1.00 video frame)
Interleave, preload duration     : 500 ms

Скриншоты



[Цитировать]



Показать сообщения:    

Текущее время: 07-Дек 17:34

Часовой пояс: UTC + 3


Вы не можете начинать темы
Вы не можете отвечать на сообщения
Вы не можете редактировать свои сообщения
Вы не можете удалять свои сообщения
Вы не можете голосовать в опросах
Вы не можете прикреплять файлы к сообщениям
Вы не можете скачивать файлы

!ВНИМАНИЕ!
Сайт не предоставляет электронные версии произведений, а занимается лишь коллекционированием и каталогизацией ссылок, присылаемых и публикуемых на форуме нашими читателями. Если вы являетесь правообладателем какого-либо представленного материала и не желаете, чтобы ссылка на него находилась в нашем каталоге, свяжитесь с нами, и мы незамедлительно удалим ее. Файлы для обмена на трекере предоставлены пользователями сайта, и администрация не несет ответственности за их содержание. Просьба не заливать файлы, защищенные авторскими правами, а также файлы нелегального содержания!