[ Сегодня идет свободное скачивание без начисления Download ]


Статистика раздачи
Качаю: [ 1 ]
 
   
 
Top  
 
 
-Дмитрий Захарченко | Разборка, сборка, ремонт и чистка ноутбуков (2012-2014) CamRip- Автор (режиссер): Дмитрий Захарченко
Жанр: Обучающее видео
Продолжительность: 11:06:45
Качество видео: CamRip
Видеокодек: Microsoft MPEG-4 v3, AVC
Битрейт видео: ~191 - 259kbps
Размер кадра: 384x288, 1280x720
Аудиокодек: AAC 2.0
Битрейт аудио: 16000 - 4100Hz, 48 - 95kbps, stereo
Описание:
Разборка, сборка, ремонт и чистка ноутбуков — Вашему вниманию представлены подробные видеоинструкции по самостоятельной разборке, сборке, мелкому ремонту, чистки от пыли и замене термопасты в ноутбуках от разных производителей.

Дополнительная информация:

Содержание:
• Acer 5738ZG. Замена монитора
• Acer 5738ZG. Разборка, Замена вентилятора охлаждание, Сборка
• Acer Aspire 5732ZG. Разборка — Сборка, чистка от пыли и замена термопасты
• Acer Aspire AS3810TG-734G32i. Разборка, замена термопасты, Сборка
• ASUS A6. Разборка, чистка от пыли, Сборка
• ASUS A6R. Разборка, Сборка ноутбука
• ASUS Eee PC 1001P. Разборка, Сборка ноутбука
• ASUS F5R. Разборка — Сборка, чистка от пыли
• ASUS K50C (K40, K70). Разборка, чистка от пыли и замена термопасты, Сборка
• ASUS M51S. Разборка — Сборка, чистка от пыли и замена термопасты
• ASUS x750jb. Разборка, Сборка ноутбука
• DELL latitude d630. Разборка, замена термопасты, Сборка
• Lenovo G570. Разборка, Сборка ноутбука
• RoverBook Partner. Разборка — Сборка ноутбука
• Samsung NP-R40 plus. Замена вентилятора охлаждание и термопасты
• TOSHIBA Satellite L300. Разборка, чистка от пыли и замена термопасты, Сборка
• Toshiba Satellite R500. Разборка, Сборка ноутбука
• Доработка системы охлаждения ноутбука-Acer 5738ZG.
• Замена DVD привода на дополнительный SSD-HDD на ноутбуке

MI#1

Общее
Полное имя : D:\Торренты\ноутбук\Acer 5738ZG. Замена монитора.wmv
Формат : Windows Media
Размер файла : 93,6 Мбайт
Продолжительность : 11 м.
Общий поток : 1155 Кбит/сек
Максимальный общий битрейт : 248 Кбит/сек
Дата кодирования : UTC 1970-01-01 00:00:00.000
major_brand : mp42
minor_version : 0
compatible_brands : isommp42
WM/EncodingSettings : Lavf56.4.102
Видео
Идентификатор : 1
Формат : MPEG-4 Visual
Идентификатор кодека : MP43
Идентификатор кодека/Информация : Microsoft MPEG-4 v3 (pre-standard)
Идентификатор кодека/Подсказка : Microsoft
Описание кодека : msmpeg4v3
Продолжительность : 11 м.
Битрейт : 1053 Кбит/сек
Ширина : 1280 пикселей
Высота : 720 пикселей
Соотношение сторон : 16:9
Частота кадров : 25,000 кадров/сек
Битовая глубина : 8 бит
Метод сжатия : С потерями
Бит/(Пиксели*Кадры) : 0.046
Размер потока : 85,3 Мбайт (91%)
Аудио
Идентификатор : 2
Формат : WMA
Версия формата : Version 1
Идентификатор кодека : 160
Идентификатор кодека/Информация : Windows Media Audio
Описание кодека : wmav1
Продолжительность : 11 м.
Битрейт : 48,0 Кбит/сек
Каналы : 1 канал
Частота : 16,0 КГц
Битовая глубина : 16 бит
Размер потока : 3,89 Мбайт (4%)

MI#2

Общее
Полное имя : D:\Торренты\ноутбук\Доработка системы охлаждения ноутбука Acer 5738ZG.mp4
Формат : MPEG-4
Профиль формата : Base Media / Version 2
Идентификатор кодека : mp42
Размер файла : 156 Мбайт
Продолжительность : 1 ч. 1 м.
Режим общего битрейта : Переменный
Общий поток : 357 Кбит/сек
Дата кодирования : UTC 2012-02-16 19:22:28
Дата пометки : UTC 2012-02-16 19:22:28
gsst : 0
gstd : 3666500
gssd : B53AEC647HH1430021112366044
gshh : r4---sn-c5niuxaxjvh-045e.googlevideo.com
Видео
Идентификатор : 1
Формат : AVC
Формат/Информация : Advanced Video Codec
Профиль формата : Baseline@L2.1
Параметр CABAC формата : Нет
Параметр ReFrames формата : 1 кадр
Идентификатор кодека : avc1
Идентификатор кодека/Информация : Advanced Video Coding
Продолжительность : 1 ч. 1 м.
Битрейт : 259 Кбит/сек
Максимальный битрейт : 721 Кбит/сек
Ширина : 384 пикселя
Высота : 288 пикселей
Соотношение сторон : 4:3
Режим частоты кадров : Постоянный
Частота кадров : 15,000 кадров/сек
Цветовое пространство : YUV
Субдискретизация насыщенности : 4:2:0
Битовая глубина : 8 бит
Тип развёртки : Прогрессивная
Бит/(Пиксели*Кадры) : 0.156
Размер потока : 113 Мбайт (73%)
Дата пометки : UTC 2012-02-16 19:22:30
Аудио
Идентификатор : 2
Формат : AAC
Формат/Информация : Advanced Audio Codec
Профиль формата : LC
Идентификатор кодека : 40
Продолжительность : 1 ч. 1 м.
Вид битрейта : Переменный
Битрейт : 96,0 Кбит/сек
Максимальный битрейт : 121 Кбит/сек
Каналы : 2 канала
Расположение каналов : Front: L R
Частота : 44,1 КГц
Метод сжатия : С потерями
Размер потока : 42,0 Мбайт (27%)
Заголовок : IsoMedia File Produced by Google, 5-11-2011
Дата кодирования : UTC 2012-02-16 19:22:29
Дата пометки : UTC 2012-02-16 19:22:30
Скриншоты:

[Цитировать]



Показать сообщения:    

Текущее время: 08-Дек 21:17

Часовой пояс: UTC + 3


Вы не можете начинать темы
Вы не можете отвечать на сообщения
Вы не можете редактировать свои сообщения
Вы не можете удалять свои сообщения
Вы не можете голосовать в опросах
Вы не можете прикреплять файлы к сообщениям
Вы не можете скачивать файлы

!ВНИМАНИЕ!
Сайт не предоставляет электронные версии произведений, а занимается лишь коллекционированием и каталогизацией ссылок, присылаемых и публикуемых на форуме нашими читателями. Если вы являетесь правообладателем какого-либо представленного материала и не желаете, чтобы ссылка на него находилась в нашем каталоге, свяжитесь с нами, и мы незамедлительно удалим ее. Файлы для обмена на трекере предоставлены пользователями сайта, и администрация не несет ответственности за их содержание. Просьба не заливать файлы, защищенные авторскими правами, а также файлы нелегального содержания!