[ Сегодня идет свободное скачивание без начисления Download ]


Статистика раздачи
Нет
 
   
 
Top  
 
 
Работорговля / Skin Trade«Blood for blood» Страна: США, Таиланд, Канада
Жанр: боевик, триллер, драма
Год выпуска: 2014
Продолжительность: 01:35:50
Перевод: Любительский (двухголосый закадровый) [ColdFilm]
Cубтитры: нет
Оригинальная аудиодорожка: нет
Режиссер: Экачай Уэкронгтам / Ekachai Uekrongtham
В ролях: Рон Перлман, Дольф Лундгрен, Питер Уэллер, Майкл Джей Уайт, Тони Джа, Селина Жаде, Конан Стивенс, Кэри-Хироюки Тагава, Тася Телес, Майк Допуд
Описание: Подпольная, теневая торговля, чёрный рынок — синонимы одной из острейших и наболевших проблем современного общества. Но сбыт человеческих органов — ещё более страшная реальность, с которой сталкивается герой столь непростой истории. Полицейский-детектив расследует дело о похищении и вероятности продажи «на органы» одной девушки.
Распутывая клубок гениально спланированного преступления, он лицом к лицу сталкивается с целой подпольной системой, рынком рабов, в котором свои заправилы и боссы являются вершителями судеб сотен и тысяч невинных и беззащитных. Приоткрыв завесу над кошмаром во плоти, простому копу придётся вступить в неравную борьбу с представителями рынка, в борьбу, из которой практически невозможно выйти победителем…

Качество видео: WEB-DLRip [Исх. WEB-DL 720p]
Формат видео: AVI
Видео: 720x304 (2.37:1), 25 fps, XviD build 73 ~1960 kbps avg, 0.36 bit/pixel
Аудио: 48 kHz, AC3 Dolby Digital, 2/0 (L,R) ch, ~192.00 kbps avg

MediaInfo

Общее
Полное имя : S:\Фильмы\Работорговля. 204. WEB-DLRip (AleksSin).avi
Формат : AVI
Формат/Информация : Audio Video Interleave
Размер файла : 1,45 Гбайт
Продолжительность : 1 ч. 35 м.
Общий поток : 2162 Кбит/сек
Программа кодирования : VirtualDubModRus 1.5.10.2 (build 2542/release)
Библиотека кодирования : VirtualDubMod build 2542/release
Видео
Идентификатор : 0
Формат : MPEG-4 Visual
Профиль формата : Advanced [email protected]
Параметр BVOP формата : 1
Параметр QPel формата : Нет
Параметр GMC формата : Без точки перехода
Параметр матрицы формата : Выборочная
Идентификатор кодека : XVID
Идентификатор кодека/Подсказка : XviD
Продолжительность : 1 ч. 35 м.
Битрейт : 1960 Кбит/сек
Ширина : 720 пикс.
Высота : 304 пикс.
Соотношение сторон : 2,35:1
Частота кадров : 25,000 кадр/сек
Цветовое пространство : YUV
Подвыборка цветности : 4:2:0
Битовая глубина : 8 бит
Тип развёртки : Прогрессивная
Метод сжатия : С потерями
Бит/(Пиксели*Кадры) : 0.358
Размер потока : 1,31 Гбайт (91%)
Библиотека кодирования : XviD 73
Аудио
Идентификатор : 1
Формат : AC-3
Формат/Информация : Audio Coding 3
Расширение режима : CM (complete main)
Идентификатор кодека : 2000
Продолжительность : 1 ч. 35 м.
Вид битрейта : Постоянный
Битрейт : 192 Кбит/сек
Каналы : 2 канала
Расположение каналов : Front: L R
Частота : 48,0 КГц
Битовая глубина : 16 бит
Метод сжатия : С потерями
Размер потока : 132 Мбайт (9%)
Выравнивание : Разделение по промежуткам
Продолжительность промежутка : 40 мс. (1,00 видеокадр)
Время предзагрузки промежутка : 500 ms

Скриншот c названием фильма

Скриншоты

[Цитировать]



Показать сообщения:    

Текущее время: 05-Дек 15:37

Часовой пояс: UTC + 3


Вы не можете начинать темы
Вы не можете отвечать на сообщения
Вы не можете редактировать свои сообщения
Вы не можете удалять свои сообщения
Вы не можете голосовать в опросах
Вы не можете прикреплять файлы к сообщениям
Вы не можете скачивать файлы

!ВНИМАНИЕ!
Сайт не предоставляет электронные версии произведений, а занимается лишь коллекционированием и каталогизацией ссылок, присылаемых и публикуемых на форуме нашими читателями. Если вы являетесь правообладателем какого-либо представленного материала и не желаете, чтобы ссылка на него находилась в нашем каталоге, свяжитесь с нами, и мы незамедлительно удалим ее. Файлы для обмена на трекере предоставлены пользователями сайта, и администрация не несет ответственности за их содержание. Просьба не заливать файлы, защищенные авторскими правами, а также файлы нелегального содержания!