[ Сегодня идет свободное скачивание без начисления Download ]


Статистика раздачи
Нет
 
   
 
Top  
 
 
Информация о фильме
Название: Женщины против мужчин
Оригинальное название: Женщины против мужчин
Год выхода: 2015
Жанр: комедия
Режиссёр: Таир Мамедов
В ролях: Роман Юнусов, Александр Головин, Денис Косяков, Мария Кравченко, Настасья Самбурская, Наталья Рудова, Таир Мамедов, Олег Верещагин, Карен Манташян, Александр Шаляпин
О фильме:Школьная любовь трех замечательных пар заканчивается тремя прекрасными свадьбами и сумасшедшим свадебным путешествием на экзотическую и горячую Кубу. Но первый же день долгожданного медового месяца окончился гигантской ссорой, переходящей в вечную войну мужчин против женщин. А на войне, как и в любви, правил нет! Пираньи в бассейн? Запросто! Пожар в номере? Не вопрос! Флирт на глазах у любимого мужа? Однозначно, да! И все это, конечно же, во имя любви!

Выпущено: Россия
Продолжительность: 01:24:05
Озвучивание: Оригинальное [iTunes]
Файл
Формат: MKV
Качество: WEB-DL 720p
Видео: 3982 kb/s, 1280x536
Аудио: AC3, 384 kb/s (6 ch)

MI

Format : Matroska
Format version : Version 2
File size : 2.62 GiB
Duration : 1h 24mn
Overall bit rate : 4 455 Kbps
Encoded date : UTC 2015-04-27 05:27:26
Writing application : mkvmerge v7.8.0 ('River Man') 64bit built on Mar 27 2015 16:31:37
Writing library : libebml v1.3.1 + libmatroska v1.4.2
DURATION : 01:24:04.512000000
NUMBER_OF_FRAMES : 157641
NUMBER_OF_BYTES : 242136576
_STATISTICS_WRITING_APP : mkvmerge v7.8.0 ('River Man') 64bit built on Mar 27 2015 16:31:37
_STATISTICS_WRITING_DATE_UTC : 2015-04-27 05:27:26
_STATISTICS_TAGS : BPS DURATION NUMBER_OF_FRAMES NUMBER_OF_BYTES
Video
ID : 1
Format : AVC
Format/Info : Advanced Video Codec
Format profile : Main@L3.1
Format settings, CABAC : No
Format settings, ReFrames : 2 frames
Codec ID : V_MPEG4/ISO/AVC
Duration : 1h 24mn
Bit rate : 3 982 Kbps
Width : 1 280 pixels
Height : 536 pixels
Display aspect ratio : 2.40:1
Frame rate : 24.000 fps
Color space : YUV
Chroma subsampling : 4:2:0
Bit depth : 8 bits
Scan type : Progressive
Bits/(Pixel*Frame) : 0.242
Stream size : 2.34 GiB (89%)
Language : English
Default : Yes
Forced : No
Color primaries : BT.709-5, BT.1361, IEC 61966-2-4, SMPTE RP177
Transfer characteristics : BT.709-5, BT.1361
Matrix coefficients : BT.709-5, BT.1361, IEC 61966-2-4 709, SMPTE RP177
Audio
ID : 2
Format : AC-3
Format/Info : Audio Coding 3
Mode extension : CM (complete main)
Format settings, Endianness : Big
Codec ID : A_AC3
Duration : 1h 24mn
Bit rate mode : Constant
Bit rate : 384 Kbps
Channel(s) : 6 channels
Channel positions : Front: L C R, Side: L R, LFE
Sampling rate : 48.0 KHz
Bit depth : 16 bits
Compression mode : Lossy
Stream size : 231 MiB (9%)
Language : Russian
Default : Yes
Forced : No
Menu
00:00:00.000 : en:1
00:09:28.000 : en:2
00:19:52.000 : en:3
00:30:23.000 : en:4
00:39:56.000 : en:5
00:50:30.000 : en:6
01:01:06.000 : en:7
01:09:29.000 : en:8
01:20:46.000 : en:9

Скриншоты

[Цитировать]



Показать сообщения:    

Текущее время: 07-Дек 19:32

Часовой пояс: UTC + 3


Вы не можете начинать темы
Вы не можете отвечать на сообщения
Вы не можете редактировать свои сообщения
Вы не можете удалять свои сообщения
Вы не можете голосовать в опросах
Вы не можете прикреплять файлы к сообщениям
Вы не можете скачивать файлы

!ВНИМАНИЕ!
Сайт не предоставляет электронные версии произведений, а занимается лишь коллекционированием и каталогизацией ссылок, присылаемых и публикуемых на форуме нашими читателями. Если вы являетесь правообладателем какого-либо представленного материала и не желаете, чтобы ссылка на него находилась в нашем каталоге, свяжитесь с нами, и мы незамедлительно удалим ее. Файлы для обмена на трекере предоставлены пользователями сайта, и администрация не несет ответственности за их содержание. Просьба не заливать файлы, защищенные авторскими правами, а также файлы нелегального содержания!