[ Сегодня идет свободное скачивание без начисления Download ]


Статистика раздачи
Нет
 
   
 
Top  
 
 
Разработка веб приложений на Spring MVC
  • Год выпуска: 2014
  • Страна: Россия
  • Тематика: Вёрстка, программирование
  • Тип материала: Обучающее видео
  • Продолжительность: 06:15:29
  • Автор: Тимур Батыршинов
  • Язык: Русский
    Описание:
    Spring MVC — это дополнение к стандартным возможностям Spring для разработки веб приложений. Для многих веб программистов это стало настоящим открытием, потому никогда еще раньше веб разработка не была такой понятной и быстрой. В последние годы Spring MVC стабильно занимает первое место среди всех веб фреймворков Java.
    онечно, поначалу придется расширить свой кругозор: узнать многие понятия, которые раньше не использовали, разобрать архитектуру Spring MVC — но это того стоит. Один раз попробовав, вы скорее всего уже всегда будете использовать Spring для разработки веб проектов, настолько он удобен. Если вы разрабатывали ранее какие-либо приложения на JSP, JSF или других технологиях — вам не нужно будет заново переучиваться, потому что Spring MVC легко интегрируется со многими фреймворками. Тем самым вы сможете использовать весь свой багаж знаний и добавить к нему еще и Spring
  • Качество: PCRec
  • Формат: MP4
  • Видео кодек: AVC
  • Аудио кодек: AAC
  • Видео: avc1, 1800x1120, ~305 kbps, 30 fps
  • Аудио: AAC, 48 KHz, 2 ch stereo, 126 Kbps

MediaInfo

Код: copyText_writeLink('this.parentNode.parentNode.nextSibling.nextSibling'); [code]
Полное имя : D:\Мастер-Класс\Разработка веб приложений на Spring MVC (2014)\video\1-Настройка eclipse для Tomcat.mp4
Формат : MPEG-4
Профиль формата : Base Media / Version 2
Идентификатор кодека : mp42
Размер файла : 23.7 MiB
Продолжительность : 7mn 39s
Режим общего битрейта : Variable
Общий поток : 433 Kbps
Дата кодирования : UTC 2014-03-04 14:32:42
Дата пометки : UTC 2014-03-04 14:32:42
Video
Идентификатор : 1
Формат : AVC
Формат/Информация : Advanced Video Codec
Профиль формата : [email protected]
Параметр CABAC формата : No
Параметр ReFrames формата : 3 frames
Идентификатор кодека : avc1
Идентификатор кодека/Информация : Advanced Video Coding
Продолжительность : 7mn 39s
Продолжительность оригинала : 7mn 39s
Битрейт : 305 Kbps
Ширина : 1 800 pixels
Высота : 1 120 pixels
Соотношение сторон : 16:10
Режим частоты кадров : Variable
Частота кадров : 30.000 fps
Минимальная частота кадров : 30.000 fps
Максимальная частота кадров : 30.030 fps
Стандарт вещания : NTSC
Цветовое пространство : YUV
Субдискретизация насыщенности : 4:2:0
Битовая глубина : 8 bits
Тип развёртки : Progressive
Бит/(Пиксели*Кадры) : 0.005
Размер потока : 16.7 MiB (70%)
Размер потока оригинала : 16.7 MiB (70%)
Язык : English
Дата кодирования : UTC 2014-03-04 14:32:42
Дата пометки : UTC 2014-03-04 14:32:42
mdhd_Duration : 459833
Audio
Идентификатор : 2
Формат : AAC
Формат/Информация : Advanced Audio Codec
Профиль формата : LC
Идентификатор кодека : 40
Продолжительность : 7mn 39s
Продолжительность оригинала : 7mn 39s
Вид битрейта : Variable
Битрейт : 126 Kbps
Максимальный битрейт : 169 Kbps
Каналы : 2 channels
Расположение каналов : Front: L R
Частота : 44.1 KHz
Метод сжатия : Lossy
Размер потока : 6.89 MiB (29%)
Размер потока оригинала : 6.89 MiB (29%)
Язык : English
Дата кодирования : UTC 2014-03-04 14:32:42
Дата пометки : UTC 2014-03-04 14:32:42
mdhd_Duration : 459871

Список понятий и тем, которые вы пройдете в курсе:

-Плагин WTP
- Добавление Apache Tomcat
- Создание тестового веб приложения
- Стратегия разделения компонентов системы
- Слабая связь
- MVC
- DispatcherServlet
- Паттерн Front Controller
- Контроллеры
- Контекст веб приложения и контекст Spring
- Создание Spring MVC приложения с помощью плагина eclipse
- Структура проекта
- Библиотека Log4J
- Создание формы логина
- Подключение таблицы стилей
- Передача имени и пароля пользователя
- Создание нового контроллера
- Объект ModelAndView
- @ModelAttribute
- Теги Spring для создания формы
- WebApplicationContext
- ContextLoaderListener
- Получение доступа к контексту
- Класс WebApplicationContextUtils
- URL handler mapping
- View Resolver
- Понятие «internal resource view»
- Папка WEB-INF
- Поиск представления
- I nterceptor
- Отличие от Filter
- JSR 303/349
- Аннотации для валидации
- Проверка данных формы
- @RequestMapping
- produces, consumes, accept
- @RequestBody
- @ResponseBody
- Формат JSON
- Jackson Provider
- HttpMessageConverter
- Проверка данных формы
- @RequestMapping
- produces, consumes, accept
- @RequestBody
- @ResponseBody
- Формат JSON
- Jackson Provider
- HttpMessageConverter
- Проверка данных формы
- @RequestMapping
- produces, consumes, accept
- @RequestBody
- @ResponseBody
- Формат JSON
И многое другое...

[Цитировать]



Показать сообщения:    

Текущее время: 05-Дек 21:39

Часовой пояс: UTC + 3


Вы не можете начинать темы
Вы не можете отвечать на сообщения
Вы не можете редактировать свои сообщения
Вы не можете удалять свои сообщения
Вы не можете голосовать в опросах
Вы не можете прикреплять файлы к сообщениям
Вы не можете скачивать файлы

!ВНИМАНИЕ!
Сайт не предоставляет электронные версии произведений, а занимается лишь коллекционированием и каталогизацией ссылок, присылаемых и публикуемых на форуме нашими читателями. Если вы являетесь правообладателем какого-либо представленного материала и не желаете, чтобы ссылка на него находилась в нашем каталоге, свяжитесь с нами, и мы незамедлительно удалим ее. Файлы для обмена на трекере предоставлены пользователями сайта, и администрация не несет ответственности за их содержание. Просьба не заливать файлы, защищенные авторскими правами, а также файлы нелегального содержания!