[ Сегодня идет свободное скачивание без начисления Download ]


Статистика раздачи
Буду качать: [ 2 ]
Скачал: [ 14 ]
 
   
 
Top  
 
 
Базовый курс рисования для новичков
  • Год выпуска: 2015
  • Страна: Россия
  • Тематика: Рисование, обучение
  • Тип материала: Обучающее видео
  • Продолжительность: ~8 часов
  • Автор: Мария Покровская
  • Язык: Русский
    Описание:
    Это базовый курс, который включает основы основ рисунка. Это фундаментальные знания. Тем, кто собирается начать рисовать, стоит начинать именно с этого курса. Но и для тех кто уже находится в профессии, но чувствует, что имеет пробелы в своем образовании, курс тоже будет эффективен.
  • Качество: PCRec
  • Формат: MP4
  • Видео кодек: AVC
  • Аудио кодек: AAC-LC
  • Видео: avc1, 1280x720, 1285 kbps, 25 fps
  • Аудио: AAC-LC, 48 KHz, 2 ch stereo, 160 Kbps

MediaInfo

Код: copyText_writeLink('this.parentNode.parentNode.nextSibling.nextSibling'); [code]
Общее
Полное имя : D:\Мастер-Класс\Базовый курс рисования для новичков (2015)\Урок 1-6\2. Список материалов.flv
Формат : MPEG-4
Профиль формата : Base Media / Version 2
Идентификатор кодека : mp42
Размер файла : 80,2 Мбайт
Продолжительность : 7 м. 44 с.
Режим общего битрейта : Переменный
Общий поток : 1449 Кбит/сек
Дата кодирования : UTC 2015-01-30 07:30:37
Дата пометки : UTC 2015-01-30 07:30:37
Видео
Идентификатор : 1
Формат : AVC
Формат/Информация : Advanced Video Codec
Профиль формата : [email protected]
Параметр CABAC формата : Да
Параметр ReFrames формата : 4 кадра
Идентификатор кодека : avc1
Идентификатор кодека/Информация : Advanced Video Coding
Продолжительность : 7 м. 44 с.
Битрейт : 1285 Кбит/сек
Ширина : 1280 пикселей
Высота : 720 пикселей
Соотношение сторон : 16:9
Режим частоты кадров : Постоянный
Частота кадров : 25,000 кадров/сек
Цветовое пространство : YUV
Субдискретизация насыщенности : 4:2:0
Битовая глубина : 8 бит
Тип развёртки : Прогрессивная
Бит/(Пиксели*Кадры) : 0.056
Размер потока : 71,1 Мбайт (89%)
Библиотека кодирования : x264 core 142 r11 24e4fed
Настройки программы : cabac=1 / ref=3 / deblock=1:0:0 / analyse=0x3:0x113 / me=hex / subme=7 / psy=1 / psy_rd=1.00:0.00 / mixed_ref=1 / me_range=16 / chroma_me=1 / trellis=1 / 8x8dct=1 / cqm=0 / deadzone=21,11 / fast_pskip=1 / chroma_qp_offset=-2 / threads=48 / lookahead_threads=5 / sliced_threads=0 / nr=0 / decimate=1 / interlaced=0 / bluray_compat=0 / stitchable=1 / constrained_intra=0 / bframes=3 / b_pyramid=2 / b_adapt=1 / b_bias=0 / direct=1 / weightb=1 / open_gop=0 / weightp=2 / keyint=infinite / keyint_min=25 / scenecut=40 / intra_refresh=0 / rc_lookahead=40 / rc=crf / mbtree=1 / crf=20.0 / qcomp=0.60 / qpmin=5 / qpmax=69 / qpstep=4 / vbv_maxrate=2750 / vbv_bufsize=7500 / crf_max=0.0 / nal_hrd=none / filler=0 / ip_ratio=1.40 / aq=1:1.00
Дата кодирования : UTC 2015-01-30 07:30:37
Дата пометки : UTC 2015-01-30 07:30:37
Цветовой диапазон : Limited
Основные цвета : BT.709
Характеристики трансфера : BT.709
Коэффициенты матрицы : BT.709
Аудио
Идентификатор : 2
Формат : AAC
Формат/Информация : Advanced Audio Codec
Профиль формата : LC
Идентификатор кодека : 40
Продолжительность : 7 м. 44 с.
Вид битрейта : Переменный
Битрейт : 160 Кбит/сек
Каналы : 2 канала
Расположение каналов : Front: L R
Частота : 48,0 КГц
Метод сжатия : С потерями
Размер потока : 8,85 Мбайт (11%)
Дата кодирования : UTC 2015-01-30 07:30:37
Дата пометки : UTC 2015-01-30 07:30:37

Содержание курса:

-Знакомство друг с другом
- Скетчбук / Sketchbook
- Как точить карандаш
- Как правильно держать карандаш
- Графика. Линии.
- Графика. Штрихование.
- Рисунок. Куб. Штрихование.
- Графика. Пробуем уголь (Фактурные пятна.)
- Графика. Пятна-эмоции. Уголь
- Скетчинг. Уголь
- Секреты композиции
- Фактурный скетч
- Поп-арт скетч
- Скетч — силуэт
- Скетч — каркас
- В руке мастера. Ван Гог (Фактуры)
- Примеры городских скетчей
- Вопросы по перспективе
- Просто о перспективе
- Городской скетч
- Скетчинг. Фигура в движении
- Скетчинг. Портрет
- Скетчинг. Цвет. Пастель (Вводим цвет)
- Цветовой круг Иттена
- Живопись. Гуашь
- В руке мастера. Живопись. Моранди
- Знакомство с акварелью
- Ботаническая иллюстрация. Акварель
- Академический рисунок. Античность. Глаза Давида Микеланджело
-Куб

[Цитировать]

Станьте кто-нибудь на раздачу пожалуйста!

[Цитировать]

40197Станьте кто-нибудь на раздачу пожалуйста!
Встал на раздачу

[Цитировать]

Спасибо Вам большое!
Качаю!

[Цитировать]

Скачал.
Ещё раз огромное спасибо!

[Цитировать]

Скачать не удалось. Я плачу.

[Цитировать]

41682Скачать не удалось. Я плачу.
Встал на раздачу! А вы,не плачьте,а лучше скачайте и стойте на раздаче!А то скачаете и бежать


Последний раз редактировалось: kiryandr (2016-02-06 00:51), всего редактировалось 1 раз

[Цитировать]

ок. скачала. стою на раздаче.( хочу сказать что комп включен). нужны ли какие -то действия с моей стороны дополнительно?

[Цитировать]

Встаньте на раздачу, пожалуйста! Скачаю и тоже постою)) очень надо)

[Цитировать]

Ребята, встаньте на раздачу, пожалуйста. Скачаю, тоже буду раздавать.
Спасибо!

[Цитировать]

Встал на раздачу, перекачайте торрент, не уходите с раздачи! Всем надо , а на раздаче стоять не хотите!

[Цитировать]

Н как же скачать то?? Очень нужно!

[Цитировать]



Показать сообщения:    

Текущее время: 05-Дек 03:24

Часовой пояс: UTC + 3


Вы не можете начинать темы
Вы не можете отвечать на сообщения
Вы не можете редактировать свои сообщения
Вы не можете удалять свои сообщения
Вы не можете голосовать в опросах
Вы не можете прикреплять файлы к сообщениям
Вы не можете скачивать файлы

!ВНИМАНИЕ!
Сайт не предоставляет электронные версии произведений, а занимается лишь коллекционированием и каталогизацией ссылок, присылаемых и публикуемых на форуме нашими читателями. Если вы являетесь правообладателем какого-либо представленного материала и не желаете, чтобы ссылка на него находилась в нашем каталоге, свяжитесь с нами, и мы незамедлительно удалим ее. Файлы для обмена на трекере предоставлены пользователями сайта, и администрация не несет ответственности за их содержание. Просьба не заливать файлы, защищенные авторскими правами, а также файлы нелегального содержания!