[ Сегодня идет свободное скачивание без начисления Download ]


Статистика раздачи
Буду качать: [ 1 ]
 
   
 
Top  
 
 
Microsoft Visual Studio 2012 Tips & Tricks. Советы и трюки
  • Год выпуска: 2014
  • Страна: Россия
  • Тематика: Программирование, MVS 2012
  • Тип материала: Обучающее видео
  • Продолжительность: 00:43:54
  • Автор: Александр Бажанов
  • Язык: Русский
    Описание:
    В данном курсе Вы получите советы и узнаете о возможных "трюках" способных повысить эффективность работы с Visual Studio 2012 — основным инструментом современного разработчика. Продуктивность разработчика сильно зависит от того, насколько он хорошо знает возможности IDE, с которым работает. Зная комбинации клавиш, специальные функции, окна и настройки, Вы можете быстрее решать поставленные перед Вами задачи.
    Каждый раз, когда Вы используете мышь для того, что бы запустить определенную задачу в Visual Studio, Вы тратите драгоценное время. Любую операцию можно выполнить с помощью комбинации клавиш. Пройдя этот короткий курс, Вы узнаете много полезных трюков с Visual Studio, которые повысят Вашу продуктивность.
  • Качество: PCRec
  • Формат: MP4
  • Видео кодек: AVC
  • Аудио кодек: AAC-LC
  • Видео: avc1, 1280x888, 1927 Kbps, 30.000 fps
  • Аудио: AAC-LC, 44.1 KHz, 2 ch stereo, 158 Kbps

MediaInfo

Код: copyText_writeLink('this.parentNode.parentNode.nextSibling.nextSibling'); [code]
Общее
Полное имя : D:\Мастер-Класс\Microsoft Visual Studio 2012 Tips & Tricks. Советы и трюки (2014)\Visual Studio 2012 Tips & Tricks (2014).mp4
Формат : MPEG-4
Профиль формата : Base Media / Version 2
Идентификатор кодека : mp42
Размер файла : 655 Мбайт
Продолжительность : 43 м.
Режим общего битрейта : Переменный
Общий поток : 2087 Кбит/сек
Дата кодирования : UTC 2014-05-18 10:17:30
Дата пометки : UTC 2014-05-18 10:17:30
Видео
Идентификатор : 1
Формат : AVC
Формат/Информация : Advanced Video Codec
Профиль формата : Main@L3.2
Параметр CABAC формата : Да
Параметр ReFrames формата : 3 кадра
Идентификатор кодека : avc1
Идентификатор кодека/Информация : Advanced Video Coding
Продолжительность : 43 м.
Продолжительность оригинала : 43 м.
Битрейт : 1927 Кбит/сек
Ширина : 1280 пикселей
Высота : 888 пикселей
Соотношение сторон : 1,441
Режим частоты кадров : Переменный
Частота кадров : 30,000 кадров/сек
Минимальная частота кадров : 30,000 кадров/сек
Максимальная частота кадров : 30,030 кадров/сек
Стандарт вещания : NTSC
Цветовое пространство : YUV
Субдискретизация насыщенности : 4:2:0
Битовая глубина : 8 бит
Тип развёртки : Прогрессивная
Бит/(Пиксели*Кадры) : 0.057
Размер потока : 605 Мбайт (92%)
Размер потока оригинала : 605 Мбайт (92%)
Язык : English
Дата кодирования : UTC 2014-05-18 10:17:31
Дата пометки : UTC 2014-05-18 10:17:31
Цветовой диапазон : Limited
mdhd_Duration : 2634667
Аудио
Идентификатор : 2
Формат : AAC
Формат/Информация : Advanced Audio Codec
Профиль формата : LC
Идентификатор кодека : 40
Продолжительность : 43 м.
Продолжительность оригинала : 43 м.
Вид битрейта : Переменный
Битрейт : 158 Кбит/сек
Максимальный битрейт : 526 Кбит/сек
Каналы : 2 канала
Расположение каналов : Front: L R
Частота : 44,1 КГц
Метод сжатия : С потерями
Размер потока : 49,5 Мбайт (8%)
Размер потока оригинала : 49,5 Мбайт (8%)
Язык : English
Дата кодирования : UTC 2014-05-18 10:17:31
Дата пометки : UTC 2014-05-18 10:17:31
mdhd_Duration : 2634699

По завершению курса Вы сможете:

• Знать самые важные комбинации клавиш.
• Конфигурировать Visual Studio.
• Использовать возможности Visual Studio для генерации кода.
• Писать код быстрее.
• Повысить свою продуктивность.
Содержание:
• Настройка и особенности стартовой страницы (Start Page) в Visual Studio
• Новое в Visual Studio 2012
• Работа с окнами и организация документов.
• Поиск
• Настройки и новые функции Solution Explorer
• Навигация по проекту
• Настройки Intellisense и новые функции
• Редактор кода.
• Автогенерация кода и Smart Tag
• Отладка
• Веб ресурсы связанные с Visual Studio.

[Цитировать]



Показать сообщения:    

Текущее время: 09-Дек 14:42

Часовой пояс: UTC + 3


Вы не можете начинать темы
Вы не можете отвечать на сообщения
Вы не можете редактировать свои сообщения
Вы не можете удалять свои сообщения
Вы не можете голосовать в опросах
Вы не можете прикреплять файлы к сообщениям
Вы не можете скачивать файлы

!ВНИМАНИЕ!
Сайт не предоставляет электронные версии произведений, а занимается лишь коллекционированием и каталогизацией ссылок, присылаемых и публикуемых на форуме нашими читателями. Если вы являетесь правообладателем какого-либо представленного материала и не желаете, чтобы ссылка на него находилась в нашем каталоге, свяжитесь с нами, и мы незамедлительно удалим ее. Файлы для обмена на трекере предоставлены пользователями сайта, и администрация не несет ответственности за их содержание. Просьба не заливать файлы, защищенные авторскими правами, а также файлы нелегального содержания!