[ Сегодня идет свободное скачивание без начисления Download ]


Статистика раздачи
Размер:  2,47 GB   |    Зарегистрирован:  1 год 9 месяцев   |    Скачан:  1 раз
DL-List: Нет
 
   
 
 
Top  
 
 
Технология монтажа электрического теплого пола
  • Год выпуска: 2014
  • Страна: Россия
  • Тематика: Сделай сам, ремонт своими руками
  • Тип материала: Обучающее видео
  • Продолжительность: 2 часа 45 минут
  • Автор: Дмитрий Шумаков
  • Язык: Русский
    Описание:
    Этот обучающий видеокурс познакомит вас с технологией монтажа теплого электрического пола и научит выполнять данную работу самостоятельно.
    Иметь дома теплый пол стало очень популярным. Кто-то предпочитает выполнять эту работу самостоятельно, а кто-то обращается за помощью к специалистам. Но если у вас нет денег на то, чтобы кого-то нанимать, а знаний для выполнения этой работы самостоятельно нет, то решить данную проблему можно с помощью этого видеокурса. Он сэкономит ваши деньги на специалистах и поможет сделать теплый пол у себя дома самостоятельно. Кроме того этих знаний будет достаточно, чтобы выполнять данную работу за деньги другим людям.
  • Качество: PCRec
  • Формат: autorun.exe, MP4
  • Видео кодек: AVC
  • Аудио кодек: AAC-LC
  • Видео: avc1, 1920x1080, 2000 kbps, 25 fps
  • Аудио: AAC-LC, 44.1 KHz, 2 ch stereo, 126 Kbps

MediaInfo

Код: copyText_writeLink('this.parentNode.parentNode.nextSibling.nextSibling'); Общее
Полное имя : D:\Мастер-Класс\Технология монтажа электрического теплого пола (2014)\Раздел 1. Теоретические моменты\1. Виды кабелей электрического теплого пола.mp4
Формат : MPEG-4
Профиль формата : Base Media
Идентификатор кодека : isom
Размер файла : 156 Мбайт
Продолжительность : 10 м.
Режим общего битрейта : Переменный
Общий поток : 2132 Кбит/сек
Дата кодирования : UTC 2015-03-20 09:31:06
Дата пометки : UTC 2015-03-20 09:31:06
Программа кодирования : FormatFactory : http://www.pcfreetime.com
Видео
Идентификатор : 1
Формат : AVC
Формат/Информация : Advanced Video Codec
Профиль формата : High@L3
Параметр CABAC формата : Нет
Параметр ReFrames формата : 1 кадр
Идентификатор кодека : avc1
Идентификатор кодека/Информация : Advanced Video Coding
Продолжительность : 10 м.
Битрейт : 2000 Кбит/сек
Максимальный битрейт : 6505 Кбит/сек
Ширина : 1920 пикселей
Высота : 1080 пикселей
Соотношение сторон : 16:9
Режим частоты кадров : Постоянный
Частота кадров : 25,000 кадров/сек
Цветовое пространство : YUV
Субдискретизация насыщенности : 4:2:0
Битовая глубина : 8 бит
Тип развёртки : Прогрессивная
Бит/(Пиксели*Кадры) : 0.039
Размер потока : 147 Мбайт (94%)
Библиотека кодирования : x264 core 116 r2019 9cc407d
Настройки программы : cabac=0 / ref=1 / deblock=1:0:0 / analyse=0x3:0x113 / me=hex / subme=7 / psy=1 / psy_rd=1.00:0.00 / mixed_ref=0 / me_range=16 / chroma_me=1 / trellis=1 / 8x8dct=1 / cqm=0 / deadzone=21,11 / fast_pskip=1 / chroma_qp_offset=-2 / threads=6 / sliced_threads=0 / nr=0 / decimate=1 / interlaced=0 / bluray_compat=0 / constrained_intra=0 / bframes=0 / weightp=2 / keyint=250 / keyint_min=25 / scenecut=40 / intra_refresh=0 / rc_lookahead=40 / rc=abr / mbtree=1 / bitrate=2000 / ratetol=1.0 / qcomp=0.60 / qpmin=0 / qpmax=69 / qpstep=4 / ip_ratio=1.40 / aq=1:1.00
Дата кодирования : UTC 2015-03-20 09:31:06
Дата пометки : UTC 2015-03-20 09:31:08
Аудио
Идентификатор : 2
Формат : AAC
Формат/Информация : Advanced Audio Codec
Профиль формата : LC
Идентификатор кодека : 40
Продолжительность : 10 м.
Вид битрейта : Переменный
Битрейт : 126 Кбит/сек
Максимальный битрейт : 260 Кбит/сек
Каналы : 2 канала
Расположение каналов : Front: L R
Частота : 44,1 КГц
Метод сжатия : С потерями
Размер потока : 9,19 Мбайт (6%)
Дата кодирования : UTC 2015-03-20 09:31:07
Дата пометки : UTC 2015-03-20 09:31:08

Содержание

Раздел 1: Теоретические моменты.
№1. Виды кабелей электрического теплого пола.
№2. Устройство бетонной системы электрического теплого пола.
№3. Электрический теплый пол с минимальными затратами на электроэнергию.
№4. Способы раскладки кабеля электрического теплого пола.
№5. Электрический теплый пол на деревянной основе.
№6. Монтаж электрического теплого пола в жилом доме(квартире).
№7. Расчет электрического теплого пола.
Раздел 2: Практические приемы.
№1. Необходимые приготовления перед монтажом теплого пола.
№2. Монтаж демпферной ленты.
№3. Приемы монтажа теплоизоляции.
№4. Способы крепления сетки МАК.
№5. Штробовка стен для крепления термостата.
№6. Проверка качества работы кабеля перед монтажом.
№7. Монтаж кабеля электрического теплого пола в жилом помещении.
№8. Монтаж электрического теплого пола в санузле.
№9. Особенности и итог монтажа теплого пола в санузле.
№10. Заливка бетонной стяжки на смонтированный теплый пол.
[torrents-club.org].t19677.torrent
Торрент: Зарегистрирован   [ 2015-04-30 08:46 ] · 5AA7D77AE711A1D730F658D0D59A852B4213798E

Скачать .torrent

Скачать

16 KB

Статус: проверено
Скачан: 1 раз
Размер: 2,47 GB
terms.php

[Цитировать]



Быстрый ответ

Имя:

      
Для отправки сообщений необходимо включить JavaScript
Показать сообщения:    

Текущее время: 24-Фев 11:09

Часовой пояс: UTC + 3


Вы можете начинать темы
Вы можете отвечать на сообщения
Вы не можете редактировать свои сообщения
Вы не можете удалять свои сообщения
Вы не можете голосовать в опросах
Вы не можете прикреплять файлы к сообщениям
Вы можете скачивать файлы

!ВНИМАНИЕ!
Сайт не предоставляет электронные версии произведений, а занимается лишь коллекционированием и каталогизацией ссылок, присылаемых и публикуемых на форуме нашими читателями. Если вы являетесь правообладателем какого-либо представленного материала и не желаете, чтобы ссылка на него находилась в нашем каталоге, свяжитесь с нами, и мы незамедлительно удалим ее. Файлы для обмена на трекере предоставлены пользователями сайта, и администрация не несет ответственности за их содержание. Просьба не заливать файлы, защищенные авторскими правами, а также файлы нелегального содержания!