[ Сегодня идет свободное скачивание без начисления Download ]


Статистика раздачи
Нет
 
   
 
Top  
 
 
Путешествие пана Кляксы / Podr?ze pana Kleksa Год выпуска: 1986
Жанр: фэнтези, приключения, семейный, детский
Продолжительность: 2:37:27
Cтраны: CCCP, Польша
Режиссер: Кшиштоф Градовски / Krzysztof Gradowski
В ролях: Петр Фрончевский, Малгожата Островска, Хенрик Биста, Збигнев Бучковский, Георгий Вицин, Ирина Губанова, Иржи Бончак, Марчин Барански, Веслав Михниковский, Владислав КовальскийОписание: Продолжение фильма "Академия пана Кляксы". На этот раз в стране сказок произошли чрезвычайные события: таинственные силы украли бочку с волшебными чернилами, и стало нечем записывать сказки!1-я серия - "Посланники сказки"; 2-я серия - "Остров изобретателей".

6.90 (83)-Доп. информация: Релиз сделан в рамках проекта . В качестве источника использовался .
Качество: DVDRip
Формат: AVI
Видео кодек: XviD
Аудио кодек: MP3
Видео: 688x528 25fps XviD 1.1Mbps
Аудио: 48KHz Stereo mp3 160Kbps

Cравнение с существующей раздачей

Отличия от раздачи:-Cравние скриншотов здесь.
Кроме того, в упомянутом релизе меньше фактическое разрешение: (512х384) против 688х528 здесь, обрезаны начальные титры в первой серии, больший кроп, чем необходимо, параметры звука хуже, чем указано (96kbps), некорректная частота кадров (24.975fps), а также использован Packed bitstream.
MediaInfo раздачи от Шуршуни
malky@malky-desktop:~$ mediainfo /media/d/Downloads/Torrent/puteshestvia.pana.klyaksy/puteshestvia.pana.klyaksy.cd1.avi
General
Complete name : /media/d/Downloads/Torrent/puteshestvia.pana.klyaksy/puteshestvia.pana.klyaksy.cd1.avi
Format : AVI
Format/Info : Audio Video Interleave
File size : 699 MiB
Duration : 1h 20mn
Overall bit rate : 1 217 Kbps
Writing library : VirtualDub build 16297/release
Video
ID : 0
Format : MPEG-4 Visual
Format settings, BVOP : Yes
Format settings, QPel : No
Format settings, GMC : No warppoints
Format settings, Matrix : Default (H.263)
Muxing mode : Packed bitstream
Codec ID : DX50
Codec ID/Hint : DivX 5
Duration : 1h 20mn
Bit rate : 1 111 Kbps
Width : 512 pixels
Height : 384 pixels
Display aspect ratio : 4:3
Frame rate : 24.975 fps
Resolution : 24 bits
Scan type : Progressive
Bits/(Pixel*Frame) : 0.226
Stream size : 638 MiB (91%)
Writing library : DivX 5.0.5 (UTC 2003-04-24)
Audio
ID : 1
Format : MPEG Audio
Format version : Version 1
Format profile : Layer 3
Codec ID : 55
Codec ID/Hint : MP3
Duration : 1h 20mn
Bit rate mode : Constant
Bit rate : 96.0 Kbps
Channel(s) : 1 channel
Sampling rate : 48.0 KHz
Resolution : 16 bits
Video delay : 23ms
Stream size : 55.2 MiB (8%)
Alignment : Split accross interleaves
Interleave, duration : 40 ms (1.00 video frame)
Interleave, preload duration : 500 ms
malky@malky-desktop:~$

MediaInfo

malky@malky-desktop:~$ mediainfo /media/d/Downloads/Torrent/Puteshestvie.Pana.Klaksy.xvid.mp3.DVDRip.by.Malky.\[AllFilms.rutracker.org\].avi
General
Complete name : /media/d/Downloads/Torrent/Puteshestvie.Pana.Klaksy.xvid.mp3.DVDRip.by.Malky.[AllFilms.rutracker.org].avi
Format : AVI
Format/Info : Audio Video Interleave
File size : 1.44 GiB
Duration : 2h 37mn
Overall bit rate : 1 313 Kbps
Video
ID : 0
Format : MPEG-4 Visual
Format profile : AdvancedSimple@L5
Format settings, BVOP : Yes
Format settings, QPel : No
Format settings, GMC : No warppoints
Format settings, Matrix : Custom
Codec ID : XVID
Codec ID/Hint : XviD
Duration : 2h 37mn
Bit rate : 1 140 Kbps
Width : 688 pixels
Height : 528 pixels
Display aspect ratio : 4:3
Frame rate : 25.000 fps
Resolution : 24 bits
Colorimetry : 4:2:0
Scan type : Progressive
Bits/(Pixel*Frame) : 0.125
Stream size : 1.25 GiB (87%)
Writing library : XviD 1.1.2 (UTC 2006-11-01)
Audio
ID : 1
Format : MPEG Audio
Format version : Version 1
Format profile : Layer 3
Codec ID : 55
Codec ID/Hint : MP3
Duration : 2h 37mn
Bit rate mode : Constant
Bit rate : 160 Kbps
Channel(s) : 2 channels
Sampling rate : 48.0 KHz
Resolution : 16 bits
Stream size : 180 MiB (12%)
Alignment : Split accross interleaves
Interleave, duration : 24 ms (0.60 video frame)

Скриншоты

[Цитировать]



Показать сообщения:    

Текущее время: 08-Дек 01:15

Часовой пояс: UTC + 3


Вы не можете начинать темы
Вы не можете отвечать на сообщения
Вы не можете редактировать свои сообщения
Вы не можете удалять свои сообщения
Вы не можете голосовать в опросах
Вы не можете прикреплять файлы к сообщениям
Вы не можете скачивать файлы

!ВНИМАНИЕ!
Сайт не предоставляет электронные версии произведений, а занимается лишь коллекционированием и каталогизацией ссылок, присылаемых и публикуемых на форуме нашими читателями. Если вы являетесь правообладателем какого-либо представленного материала и не желаете, чтобы ссылка на него находилась в нашем каталоге, свяжитесь с нами, и мы незамедлительно удалим ее. Файлы для обмена на трекере предоставлены пользователями сайта, и администрация не несет ответственности за их содержание. Просьба не заливать файлы, защищенные авторскими правами, а также файлы нелегального содержания!