[ Today is free to download without increasing Download ]

DL-List and Torrent activity
Complete: [ 1 ]
Конёк-горбунок Жанр: сказка
Год выпуска: 1941
Продолжительность: 01:16:00
Режиссёр: Александр Роу
В ролях: Пётр Алейников, Марина Ковалёва, Вениамин Гут, Георгий Милляр, Лев Потёмкин, Н. Урусова, Михаил Трояновский, Александр Жуков, Николай Горлов, Александр Тимонтаев, Тарас Алейников
Описание: Великолепный детский фильм, поставленный по мотивам всеми любимой сказки П. Ершова. В тридесятом царстве жил-был царь. И задумал тот царь взять в жены девушку-красу. А чтобы заполучить ее, послал за ней Иванушку, крестьянского сына. А если не выполнит Иван царского задания, не сносить тогда ему головы. Тут-то и пришел на помощь к Иванушке сказочный конёк-горбунок…
Семпл: http://multi-up.com/733275
Качество видео: DVDRip
Формат видео: AVI
Видео: : 688x528 (1.30:1) XviD 1.2.1, 25 fps, 2386 kbps,0.26 bit/pixel
Аудио: Dolby AC3 48000 Hz 2 ch stereo 192 kbps


Complete name : C:\Users\samsung\Videos\Конек-Горбунок DVDRip (1941).avi
Format : AVI
Format/Info : Audio Video Interleave
File size : 1.37 GiB
Duration : 1h 16mn
Overall bit rate : 2 588 Kbps
Writing application : VirtualDubMod (build 2540/release)
Writing library : VirtualDubMod build 2540/release
ID : 0
Format : MPEG-4 Visual
Format profile : Advanced Simple@L5
Format settings, BVOP : Yes
Format settings, QPel : No
Format settings, GMC : No warppoints
Format settings, Matrix : Default (H.263)
Codec ID : XVID
Codec ID/Hint : XviD
Duration : 1h 16mn
Bit rate : 2 386 Kbps
Width : 688 pixels
Height : 528 pixels
Display aspect ratio : 4:3
Frame rate : 25.000 fps
Color space : YUV
Chroma subsampling : 4:2:0
Bit depth : 8 bits
Scan type : Progressive
Bits/(Pixel*Frame) : 0.263
Stream size : 1.27 GiB (92%)
Writing library : XviD 1.2.1 (UTC 2008-12-04)
ID : 1
Format : AC-3
Format/Info : Audio Coding 3
Mode extension : CM (complete main)
Codec ID : 2000
Duration : 1h 16mn
Bit rate mode : Constant
Bit rate : 192 Kbps
Channel(s) : 2 channels
Channel positions : Front: L R
Sampling rate : 48.0 KHz
Bit depth : 16 bits
Stream size : 104 MiB (7%)
Alignment : Aligned on interleaves
Interleave, duration : 40 ms (1.00 video frame)
Interleave, preload duration : 512 ms



Display posts:    

Current time is: 21-Oct 12:06

All times are UTC + 3

You cannot post new topics in this forum
You cannot reply to topics in this forum
You cannot edit your posts in this forum
You cannot delete your posts in this forum
You cannot vote in polls in this forum
You cannot attach files in this forum
You cannot download files in this forum

The site does not give electronic versions of products, and is engaged only in a collecting and cataloguing of the references sent and published at a forum by our readers. If you are the legal owner of any submitted material and do not wish that the reference to it was in our catalogue, contact us and we shall immediately remove her. Files for an exchange on tracker are given by users of a site, and the administration does not bear the responsibility for their maintenance. The request to not fill in the files protected by copyrights, and also files of the illegal maintenance!