[ Today is free to download without increasing Download ]

DL-List and Torrent activity
Марья Искусница Жанр: сказка
Год выпуска: 1959
Продолжительность: 01:14:55
Режиссёр: Александр Роу
В ролях: Михаил Кузнецов, Нинель Мышкова, Витя Перевалов, Анатолий Кубацкий, Оля Хачапуридзе, Георгий Милляр, Вера Алтайская, Сергей Троицкий, Александр Хвыля, Николай Кондратьев, Андрей Алешин, Андрей Баранов, Валентин Брылеев, Николай Кузнецов, Константин Немоляев, Владимир Пицек, Константин Старостин, Михаил Щербаков
Закончилась у солдата служба, спешит солдат домой. Но по пути в родные места довелось ему сделать еще одно доброе дело: помочь мальчику Иванушке вызволить из плена матушку свою – Марью–Искусницу. Уж как ни старался могущественный и хитрый царь Водокрут со всей своей придворной нечистью, так и не смог побороть солдатскую смекалку и доброе сердце…

Качество видео: DVDRip
Формат видео: AVI
Видео: 608x464 (1.31:1), 25 fps, XviD build 64 ~1253 kbps avg, 0.18 bit/pixel
Аудио: 48 kHz, MPEG Layer 3, 2 ch, ~128.00 kbps avg


Complete name : D:\Фильмы\Марья Искусница DVDRip(1959).avi
Format : AVI
Format/Info : Audio Video Interleave
File size : 745 MiB
Duration : 1h 14mn
Overall bit rate : 1 391 Kbps
Writing library : VirtualDub build 35390/release
ID : 0
Format : MPEG-4 Visual
Format profile : Advanced Simple@L5
Format settings, BVOP : No
Format settings, QPel : No
Format settings, GMC : No warppoints
Format settings, Matrix : Custom
Codec ID : XVID
Codec ID/Hint : XviD
Duration : 1h 14mn
Bit rate : 1 253 Kbps
Width : 608 pixels
Height : 464 pixels
Display aspect ratio : 4:3
Frame rate : 25.000 fps
Color space : YUV
Chroma subsampling : 4:2:0
Bit depth : 8 bits
Scan type : Progressive
Bits/(Pixel*Frame) : 0.178
Stream size : 672 MiB (90%)
Writing library : XviD 64
ID : 1
Format : MPEG Audio
Format version : Version 1
Format profile : Layer 3
Codec ID : 55
Codec ID/Hint : MP3
Duration : 1h 14mn
Bit rate mode : Constant
Bit rate : 128 Kbps
Channel(s) : 2 channels
Sampling rate : 48.0 KHz
Stream size : 68.6 MiB (9%)
Alignment : Split accross interleaves
Interleave, duration : 40 ms (1.00 video frame)
Interleave, preload duration : 500 ms
Writing library : LAME3.98r
Encoding settings : -m s -V 4 -q 2 -lowpass 17 -b 128



Display posts:    

Current time is: 23-Oct 19:17

All times are UTC + 3

You cannot post new topics in this forum
You cannot reply to topics in this forum
You cannot edit your posts in this forum
You cannot delete your posts in this forum
You cannot vote in polls in this forum
You cannot attach files in this forum
You cannot download files in this forum

The site does not give electronic versions of products, and is engaged only in a collecting and cataloguing of the references sent and published at a forum by our readers. If you are the legal owner of any submitted material and do not wish that the reference to it was in our catalogue, contact us and we shall immediately remove her. Files for an exchange on tracker are given by users of a site, and the administration does not bear the responsibility for their maintenance. The request to not fill in the files protected by copyrights, and also files of the illegal maintenance!