[ Сегодня идет свободное скачивание без начисления Download ]


Статистика раздачи
Нет
 
   
 
Top  
 
 
Запятнанная репутация / The Human Stain«Как далеко вы бы зашли, чтобы избавиться от прошлого?»
Год выпуска: 2003
Страна: Германия, США, Франция
Производство: Cinepsilon, Cinerenta Medienbeteiligungs KG, Lakeshore Entertainment, Miramax Films, Stone Village Productions
Жанр: Драма, Мелодрама
Режиссер: Роберт Бентон
В ролях: Энтони Хопкинс, Николь Кидман, Эд Харрис, Гэри Синиз, Вентворт Миллер, Джасинда Бэррет, Гарри Дж. Ленникс, Кларк Грегг, Анна Дивер Смит, Лизэн Митчел
Перевод: Профессиональный (полное дублирование)
Субтитры: Отсутствуют
Описание: Немолодой профессор более 50 лет скрывал от своих близких страшный секрет. Случайный роман с молодой служанкой становится толчком для расследования прошлой жизни. Грязные тайны прошедших дней врываются в настоящее, сметая все на своем пути…
[kp]8040[/kp] [imdb]tt0308383[/imdb]
Доп. информация:
Возрастное ограничение: 16+

Качество: HDRip
Продолжительность: 01:41:28
Формат: AVI
Видео кодек: DivX
Аудио кодек: AC3
Видео: 720x400 (16:9), 25 fps, DivX 5.0 build ~1543 kbps avg, 0.214 bit/pixel
Аудио: 48 kHz, AC3, 6 ch, ~384.00 kbps avg
Премьера (мир): 29 августа 2003
Премьера (РФ): 5 февраля 2004, «Пирамида»

Media Info

Видео
Идентификатор                            : 0
Формат                                   : MPEG-4 Visual
Параметр BVOP формата                    : 1
Параметр QPel формата                    : Нет
Параметр GMC формата                     : Без точки перехода
Параметр матрицы формата                 : Default (H.263)
Режим смешивания                         : Сжатый битовый поток
Идентификатор кодека                     : DX50
Идентификатор кодека/Подсказка           : DivX 5
Продолжительность                        : 1 ч. 41 м.
Битрейт                                  : 1543 Кбит/сек
Ширина                                   : 720 пикселей
Высота                                   : 400 пикселей
Соотношение сторон                       : 16:9
Частота кадров                           : 25,000 кадров/сек
Цветовое пространство                    : YUV
Субдискретизация насыщенности            : 4:2:0
Битовая глубина                          : 8 бит
Тип развёртки                            : Прогрессивная
Метод сжатия                             : С потерями
Бит/(Пиксели*Кадры)                      : 0.214
Размер потока                            : 1,09 Гбайт (80%)
Библиотека кодирования                   : DivX 6.6.1.4
Аудио
Идентификатор                            : 1
Формат                                   : AC-3
Формат/Информация                        : Audio Coding 3
Расширение режима                        : CM (complete main)
Идентификатор кодека                     : 2000
Продолжительность                        : 1 ч. 41 м.
Вид битрейта                             : Постоянный
Битрейт                                  : 384 Кбит/сек
Каналы                                   : 6 каналов
Расположение каналов                     : Front: L C R, Side: L R, LFE
Частота                                  : 48,0 КГц
Битовая глубина                          : 16 бит
Метод сжатия                             : С потерями
Размер потока                            : 278 Мбайт (20%)
Выравнивание                             : Разделение по промежуткам
Продолжительность промежутка             : 40  мс. (1,00 видеокадр)
Время предзагрузки промежутка            : 500  мс.

Скриншоты



[Цитировать]



Показать сообщения:    

Текущее время: 09-Дек 16:35

Часовой пояс: UTC + 3


Вы не можете начинать темы
Вы не можете отвечать на сообщения
Вы не можете редактировать свои сообщения
Вы не можете удалять свои сообщения
Вы не можете голосовать в опросах
Вы не можете прикреплять файлы к сообщениям
Вы не можете скачивать файлы

!ВНИМАНИЕ!
Сайт не предоставляет электронные версии произведений, а занимается лишь коллекционированием и каталогизацией ссылок, присылаемых и публикуемых на форуме нашими читателями. Если вы являетесь правообладателем какого-либо представленного материала и не желаете, чтобы ссылка на него находилась в нашем каталоге, свяжитесь с нами, и мы незамедлительно удалим ее. Файлы для обмена на трекере предоставлены пользователями сайта, и администрация не несет ответственности за их содержание. Просьба не заливать файлы, защищенные авторскими правами, а также файлы нелегального содержания!