[ Сегодня идет свободное скачивание без начисления Download ]


Статистика раздачи
Нет
 
   
 
Top  
 
 
-Kingsman: Секретная служба / Kingsman: The Secret Service (2014) HDTVRip - Производство: Великобритания / Twentieth Century Fox Film Corporation, Marv Films, TSG Entertainment
Жанр: Боевик, комедия, криминал, приключения
Режиссер: Мэттью Вон
Актеры: Тэрон Эджертон, Колин Фёрт, Сэмюэл Л. Джексон, Марк Стронг, Софи Куксон, Майкл Кейн, София Бутелла, Саманта Янус, Джофф Белл, Марк Хэмилл
Описание:
Эггси — молодой парень, который прошел службу в морской пехоте и имеет очень высокий уровень интеллекта. Он мог бы добиться многого, но выбрал другой путь и стал мелким преступником. Однажды он знакомится с Гарри Хартом, которому его отец когда-то спас жизнь. Этот человек решил сделать все возможное, чтобы сделать жизнь Эггси лучше и открыть для него новые возможности. Гарри рассказал ему, что является агентом секретной независимой организации, которая стоит на защите всего мира. Он предложил парню пройти обучение и стать новым членом их команды. Эггси принял предложение Харта, но сможет ли он справиться со всеми испытаниями и оправдать его надежды?..

Дата мировой премьеры: 13 декабря 2014
Дата Российской премьеры: 12 февраля 2015
Релиз на DVD: 11 июня 2015, «Двадцатый Век Фокс СНГ»
Релиз на Blu-Ray: 11 июня 2015, «Двадцатый Век Фокс СНГ»
Продолжительность: 02:10:00
Качество видео: HDTVRip
Перевод: Дублированный [Чистый Звук]
Субтитры: Корейские, вшитые неотключаемые.
Видеокодек: MPEG-4 AVC
Битрейт видео: ~3324 Кбит/с
Размер кадра: 1280x720
Аудиокодек: MP3, 2 ch
Битрейт аудио: 192 Кбит/с-

MediaInfo:

General
Complete name : E:\Kingsman.2014.D.HDTV.720p.mkv
Format : Matroska
File size : 3.14 GiB
Duration : 2h 8mn
Overall bit rate : 3 495 Kbps
Writing application : Lavf54.63.104
Writing library : Lavf54.63.104
Video
ID : 1
Format : MPEG-4 Visual
Format profile : Simple@L1
Format settings, BVOP : No
Format settings, QPel : No
Format settings, GMC : No warppoints
Format settings, Matrix : Default (H.263)
Codec ID : V_MPEG4/ISO/ASP
Codec ID/Info : Advanced Simple Profile
Duration : 2h 8mn
Bit rate : 3 233 Kbps
Width : 1 280 pixels
Height : 720 pixels
Display aspect ratio : 16:9
Frame rate : 29.970 fps
Resolution : 8 bits
Colorimetry : 4:2:0
Scan type : Progressive
Bits/(Pixel*Frame) : 0.117
Stream size : 2.90 GiB (92%)
Writing library : Lavc54.92.100
Audio
ID : 2
Format : MPEG Audio
Format version : Version 1
Format profile : Layer 3
Format_Settings_Mode : Joint stereo
Format_Settings_ModeExtension : MS Stereo
Codec ID : A_MPEG/L3
Codec ID/Hint : MP3
Duration : 2h 8mn
Bit rate mode : Constant
Bit rate : 192 Kbps
Channel(s) : 2 channels
Sampling rate : 48.0 KHz
Stream size : 176 MiB (5%)
Writing library : LAME3.99.5
-Скриншоты:

[Цитировать]



Показать сообщения:    

Текущее время: 08-Дек 17:11

Часовой пояс: UTC + 3


Вы не можете начинать темы
Вы не можете отвечать на сообщения
Вы не можете редактировать свои сообщения
Вы не можете удалять свои сообщения
Вы не можете голосовать в опросах
Вы не можете прикреплять файлы к сообщениям
Вы не можете скачивать файлы

!ВНИМАНИЕ!
Сайт не предоставляет электронные версии произведений, а занимается лишь коллекционированием и каталогизацией ссылок, присылаемых и публикуемых на форуме нашими читателями. Если вы являетесь правообладателем какого-либо представленного материала и не желаете, чтобы ссылка на него находилась в нашем каталоге, свяжитесь с нами, и мы незамедлительно удалим ее. Файлы для обмена на трекере предоставлены пользователями сайта, и администрация не несет ответственности за их содержание. Просьба не заливать файлы, защищенные авторскими правами, а также файлы нелегального содержания!