[ Сегодня идет свободное скачивание без начисления Download ]


Статистика раздачи
Нет
 
   
 
Top  
 
 
Как Иванушка-дурачок за чудом ходил
Жанр: Сказка,семейный
Год выпуска: 1977
Продолжительность: 01:25:01
Режиссёр: Надежда Кошеверова
В ролях: Олег Даль, Елена Проклова, Михаил Глузский, Татьяна Пельтцер, Владимир Этуш, Андрей Попов, Александр Бениаминов, Мария Барабанова, Игорь Дмитриев, Михаил Боярский, Сергей Филиппов, Борис Аракелов
Описание: По мотивам русских народных сказок. Отец Настеньки всегда мечтал о богатом муже для своей ненаглядной дочери. Но своевольная и свободолюбивая девушка отдала свое сердце хоть и славному, и доброму, и милому, и веселому, но очень уж бедному Иванушке-дурачку, которому все бы на дудке наигрывать да легкомысленные песенки петь. Но случилась с Настенькой беда - околдовали ее злыми чарами, обратили пылкое сердце в лед. И отправился Иванушка за тридевять земель, чтобы добыть там чудо чудное, которое его милую спасет. Долгая дорога не смутила дурачка доверчивого и людям открытого, а его добрая душа покоряла всех лиходеев и злодеев, встречавшихся на пути...
Доп. информация: Киновидеообъединение "Крупный План". Полная реставрация изображения и звука!
Качество видео: DVDRip
Формат видео: AVI
Видео: 704x304 (2.32:1), 25 fps, XviD build 64 ~2005 kbps avg, 0.38 bit/pixel
Аудио: 48 kHz, AC3 Dolby Digital, 3/2 (L,C,R,l,r) + LFE ch, ~448.00 kbps avg

MediaInfo

General
Complete name : C:\Users\samsung\Videos\Kak Ivanushka Durachok za chudom hodil (1977)_DVDRip..avi
Format : AVI
Format/Info : Audio Video Interleave
File size : 1.46 GiB
Duration : 1h 25mn
Overall bit rate : 2 463 Kbps
Writing library : VirtualDub build 35390/release
Video
ID : 0
Format : MPEG-4 Visual
Format profile : Advanced Simple@L5
Format settings, BVOP : No
Format settings, QPel : No
Format settings, GMC : No warppoints
Format settings, Matrix : Custom
Codec ID : XVID
Codec ID/Hint : XviD
Duration : 1h 25mn
Bit rate : 2 005 Kbps
Width : 704 pixels
Height : 304 pixels
Display aspect ratio : 2.35:1
Frame rate : 25.000 fps
Color space : YUV
Chroma subsampling : 4:2:0
Bit depth : 8 bits
Scan type : Progressive
Bits/(Pixel*Frame) : 0.375
Stream size : 1.19 GiB (81%)
Writing library : XviD 64
Audio
ID : 1
Format : AC-3
Format/Info : Audio Coding 3
Mode extension : CM (complete main)
Codec ID : 2000
Duration : 1h 25mn
Bit rate mode : Constant
Bit rate : 448 Kbps
Channel(s) : 6 channels
Channel positions : Front: L C R, Side: L R, LFE
Sampling rate : 48.0 KHz
Bit depth : 16 bits
Stream size : 272 MiB (18%)
Alignment : Aligned on interleaves
Interleave, duration : 40 ms (1.00 video frame)
Interleave, preload duration : 512 ms

Скриншоты

[Цитировать]



Показать сообщения:    

Текущее время: 19-Янв 20:07

Часовой пояс: UTC + 3


Вы не можете начинать темы
Вы не можете отвечать на сообщения
Вы не можете редактировать свои сообщения
Вы не можете удалять свои сообщения
Вы не можете голосовать в опросах
Вы не можете прикреплять файлы к сообщениям
Вы не можете скачивать файлы

!ВНИМАНИЕ!
Сайт не предоставляет электронные версии произведений, а занимается лишь коллекционированием и каталогизацией ссылок, присылаемых и публикуемых на форуме нашими читателями. Если вы являетесь правообладателем какого-либо представленного материала и не желаете, чтобы ссылка на него находилась в нашем каталоге, свяжитесь с нами, и мы незамедлительно удалим ее. Файлы для обмена на трекере предоставлены пользователями сайта, и администрация не несет ответственности за их содержание. Просьба не заливать файлы, защищенные авторскими правами, а также файлы нелегального содержания!