[ Сегодня идет свободное скачивание без начисления Download ]


Статистика раздачи
Нет
 
   
 
Top  
 
 
- Михаил Задорнов. Задорнов о Украине, Псаки, Кличко (2015) SATRip - Телекомпания: РЕН
Жанр: Юмористический концерт, сатира
Режиссёр: Михаил Задорнов
Описание:
Сегодня в Европе одна оценка человека - если ты к гееям относишься хорошо - ты хороший человек, если плохо - ты плохой. У них уже нет других критериев. И они нам указывают что мы неправильно живем, потому что мы против геев. Да если бы Россия была бы против геев, то у нас и шоу - бизнеса бы не было. В отличие от наших, Запад умеет пиариться, русские победят в войне и пьют до конца, а эти переписывают историю. Весь мир верит, что американцы разгромили гитлеровскую Германию, но никто не знает что наши брали Берлин и когда американцы вступили в войну. Они открыли второй фронт по большей части против Сталина, а не против Гитлера, чтобы СССР не занял бы всю Европу. Чем политкорректность отличается от лицемерия - у них и негр нельзя говорить, и черный нехорошо, и афроамериканец не толерантно. Гениальное решение придумали русские молодые компьютерщики, которые работают в Нью - Йорке - испытайте гордость за наших людей - они их называют "рубероиды". Европа стала шахматной доской Америки, под давлением заокеанских партнеров Швейцария тоже ввела санкции против России - повысила стоимость часов "Ролекс" на двадцать процентов, как россияне будут обходиться без этих часов?
Продолжительность: ~ 0:38:47
Качество видео: SATRip
Видеокодек: XVID
Битрейт видео: ~1540 kb/s
Размер кадра: 720 x 400
Аудиокодек: MP3, 2ch.
Битрейт аудио: 256 kb/s

Mediainfo:

Формат                                   : AVI
Формат/Информация                        : Audio Video Interleave
Размер файла                             : 502 Мбайт
Продолжительность                        : 38 м.
Общий поток                              : 1809 Кбит/сек
Программа кодирования                    : Lavf52.93.0
Видео
Идентификатор                            : 0
Формат                                   : xvid
Идентификатор кодека                     : xvid
Продолжительность                        : 38 м.
Битрейт                                  : 1540 Кбит/сек
Ширина                                   : 720 пикселей
Высота                                   : 400 пикселей
Соотношение сторон                       : 16:9
Частота кадров                           : 25,000 кадров/сек
Бит/(Пиксели*Кадры)                      : 0.214
Размер потока                            : 427 Мбайт (85%)
Аудио
Идентификатор                            : 1
Формат                                   : MPEG Audio
Версия формата                           : Version 1
Профиль формата                          : Layer 3
Режим                                    : Joint stereo
Расширение режима                        : MS Stereo
Идентификатор кодека                     : 55
Идентификатор кодека/Подсказка           : MP3
Продолжительность                        : 38 м.
Вид битрейта                             : Постоянный
Битрейт                                  : 256 Кбит/сек
Каналы                                   : 2 канала
Частота                                  : 44,1 КГц
Метод сжатия                             : С потерями
Размер потока                            : 71,0 Мбайт (14%)
Выравнивание                             : Соединение по промежуткам
Продолжительность промежутка             : 26  мс. (0,65 видеокадр)
Время предзагрузки промежутка            : 104  мс.
Библиотека кодирования                   : LAME3.98.4
Скриншоты:

[Цитировать]



Показать сообщения:    

Текущее время: 07-Дек 00:57

Часовой пояс: UTC + 3


Вы не можете начинать темы
Вы не можете отвечать на сообщения
Вы не можете редактировать свои сообщения
Вы не можете удалять свои сообщения
Вы не можете голосовать в опросах
Вы не можете прикреплять файлы к сообщениям
Вы не можете скачивать файлы

!ВНИМАНИЕ!
Сайт не предоставляет электронные версии произведений, а занимается лишь коллекционированием и каталогизацией ссылок, присылаемых и публикуемых на форуме нашими читателями. Если вы являетесь правообладателем какого-либо представленного материала и не желаете, чтобы ссылка на него находилась в нашем каталоге, свяжитесь с нами, и мы незамедлительно удалим ее. Файлы для обмена на трекере предоставлены пользователями сайта, и администрация не несет ответственности за их содержание. Просьба не заливать файлы, защищенные авторскими правами, а также файлы нелегального содержания!