[ Сегодня идет свободное скачивание без начисления Download ]


Статистика раздачи
Нет
 
   
 
Top  
 
 
...А зори здесь тихие (2 серии) Жанр: драма, военный
Год выпуска: 1972
Продолжительность: 01:16:36 + 01:21:10
Режиссёр: Станислав Ростоцкий
В ролях:
Андрей Мартынов
Ирина Долганова
Елена Драпеко
Екатерина Маркова
Ольга Остроумова
Ирина Шевчук
Людмила Зайцева
Алла Мещерякова
Нина Емельянова
Алексей Чернов
Виктор Авдюшко
Андрей Грибушин
Владимир Ивашов
Ирина Кмит
Игорь Костолевский
Георгий Мартынюк
Наталья Пярн
Владимир Рудый
Юрий Сорокин
Кирилл Столяров
Борис Токарев
Евгений Меньшов
Описание:
По повести Бориса Васильева «А зори здесь тихие... » В начале июня 1942 года пять зенитчиц и их командир, старшина Васков, отправившись в разведку, неожиданно обнаруживают, что в этой, казалось бы, ещё далекой от фронта местности высадился немецкий десант. Об этом необходимо сообщить в штаб. Но маленький отряд отрезан от своих...
Доп. информация: Исходник короче по времени, чем DVD от "IceStorm", но я бы не называл это урезанной версией - скорее, экспортный вариант .
Топ250: 61

Знаете ли вы, что...

  • Пять часов Ростоцкий уговаривал девчат сняться в эпизоде в бане обнажёнными, но они отказывались, так как были воспитаны в строгости.
  • С банным эпизодом потом было много проблем. После первого просмотра картины начальство потребовало вырезать откровенную сцену. Но Ростоцкому каким-то чудом удалось её отстоять.
  • В «Зорях…» была и другая сцена, где девочки-зенитчицы загорают голышом на брезенте. Режиссёру пришлось её убрать.
  • Занимает по посещаемости 10-е место среди отечественных фильмов за всю историю советского кинопроката.
  • Фильм показывает довоенное и послевоенное время в цвете, а войну в чёрно-белых цветах.
  • Лучший фильм по опросу журнала «Советский экран» в 1973 году.
  • Уговаривая актрис сняться обнажёнными в эпизоде в бане, Ростоцкий говорил: «Мне нужно показать, что убивают не просто людей, а женщин, красивых и молодых, которые рожать должны, продолжать род».
  • Ростоцкий придирчиво отбирал актрис на роли девушек-зенитчиц. Перед режиссёром за три месяца подготовительного периода прошли несколько сотен вчерашних выпускниц и действующих студенток творческих вузов.
  • Писатель Борис Васильев приезжал на съёмки всего один раз. И остался очень не доволен. Сказал, что является поклонником спектакля Любимова, а вот с концепцией фильма не согласен.
Качество видео: DVDRip, исходник -
Формат видео: AVI
Видео: 640x320 (2.00:1), 25 fps, XviD build 65 ~1147 kbps avg, 0.22 bit/pixel
Аудио: 48 kHz, MPEG Layer 3, 2 ch, ~128.00 kbps avg
Семпл

MediaInfo

Общее
Полное имя : D:\Torrent\А зори здесь тихие\А зори здесь тихие_1.46_Ruscico\А зори здесь тихие_1.46_Ruscico\А зори здесь тихие_1.46_1c.avi
Формат : AVI
Формат/Информация : Audio Video Interleave
Размер файла : 704 Мбайт
Продолжительность : 1 ч. 16 м.
Общий поток : 1285 Кбит/сек
Программа кодирования : VirtualDubModRus 1.5.10.2 (build 2540/release)
Библиотека кодирования : VirtualDubMod build 2540/release
Видео
Идентификатор : 0
Формат : MPEG-4 Visual
Профиль формата : Advanced Simple@L5
Параметр BVOP формата : 1
Параметр QPel формата : Нет
Параметр GMC формата : Без точки перехода
Параметр матрицы формата : Выборочная
Идентификатор кодека : XVID
Идентификатор кодека/Подсказка : XviD
Продолжительность : 1 ч. 16 м.
Битрейт : 1147 Кбит/сек
Ширина : 640 пикселей
Высота : 320 пикселей
Соотношение сторон : 2,000
Частота кадров : 25,000 кадров/сек
Цветовое пространство : YUV
Субдискретизация насыщенности : 4:2:0
Битовая глубина : 8 бит
Тип развёртки : Прогрессивная
Метод сжатия : С потерями
Бит/(Пиксели*Кадры) : 0.224
Размер потока : 629 Мбайт (89%)
Библиотека кодирования : XviD 65
Аудио
Идентификатор : 1
Формат : MPEG Audio
Версия формата : Version 1
Профиль формата : Layer 3
Режим : Joint stereo
Идентификатор кодека : 55
Идентификатор кодека/Подсказка : MP3
Продолжительность : 1 ч. 16 м.
Вид битрейта : Постоянный
Битрейт : 128 Кбит/сек
Каналы : 2 канала
Частота : 48,0 КГц
Метод сжатия : С потерями
Размер потока : 70,1 Мбайт (10%)
Выравнивание : Разделение по промежуткам
Продолжительность промежутка : 40 мс. (1,00 видеокадр)
Время предзагрузки промежутка : 500 мс.
Общее
Полное имя : D:\Torrent\А зори здесь тихие\А зори здесь тихие_1.46_Ruscico\А зори здесь тихие_1.46_Ruscico\А зори здесь тихие_1.46_2c.avi
Формат : AVI
Формат/Информация : Audio Video Interleave
Размер файла : 755 Мбайт
Продолжительность : 1 ч. 21 м.
Общий поток : 1300 Кбит/сек
Программа кодирования : VirtualDubModRus 1.5.10.2 (build 2540/release)
Библиотека кодирования : VirtualDubMod build 2540/release
Видео
Идентификатор : 0
Формат : MPEG-4 Visual
Профиль формата : Advanced Simple@L5
Параметр BVOP формата : 1
Параметр QPel формата : Нет
Параметр GMC формата : Без точки перехода
Параметр матрицы формата : Выборочная
Идентификатор кодека : XVID
Идентификатор кодека/Подсказка : XviD
Продолжительность : 1 ч. 21 м.
Битрейт : 1163 Кбит/сек
Ширина : 640 пикселей
Высота : 320 пикселей
Соотношение сторон : 2,000
Частота кадров : 25,000 кадров/сек
Цветовое пространство : YUV
Субдискретизация насыщенности : 4:2:0
Битовая глубина : 8 бит
Тип развёртки : Прогрессивная
Метод сжатия : С потерями
Бит/(Пиксели*Кадры) : 0.227
Размер потока : 675 Мбайт (89%)
Библиотека кодирования : XviD 65
Аудио
Идентификатор : 1
Формат : MPEG Audio
Версия формата : Version 1
Профиль формата : Layer 3
Режим : Joint stereo
Расширение режима : MS Stereo
Идентификатор кодека : 55
Идентификатор кодека/Подсказка : MP3
Продолжительность : 1 ч. 21 м.
Вид битрейта : Постоянный
Битрейт : 128 Кбит/сек
Каналы : 2 канала
Частота : 48,0 КГц
Метод сжатия : С потерями
Размер потока : 74,3 Мбайт (10%)
Выравнивание : Разделение по промежуткам
Продолжительность промежутка : 40 мс. (1,00 видеокадр)
Время предзагрузки промежутка : 500 мс.

Скриншоты

[Цитировать]



Показать сообщения:    

Текущее время: 09-Дек 01:12

Часовой пояс: UTC + 3


Вы не можете начинать темы
Вы не можете отвечать на сообщения
Вы не можете редактировать свои сообщения
Вы не можете удалять свои сообщения
Вы не можете голосовать в опросах
Вы не можете прикреплять файлы к сообщениям
Вы не можете скачивать файлы

!ВНИМАНИЕ!
Сайт не предоставляет электронные версии произведений, а занимается лишь коллекционированием и каталогизацией ссылок, присылаемых и публикуемых на форуме нашими читателями. Если вы являетесь правообладателем какого-либо представленного материала и не желаете, чтобы ссылка на него находилась в нашем каталоге, свяжитесь с нами, и мы незамедлительно удалим ее. Файлы для обмена на трекере предоставлены пользователями сайта, и администрация не несет ответственности за их содержание. Просьба не заливать файлы, защищенные авторскими правами, а также файлы нелегального содержания!