[ Сегодня идет свободное скачивание без начисления Download ]


Статистика раздачи
Скачал: [ 1 ]
 
   
 
Top  
 
 
Волшебная лампа Аладдина
Год выпуска: 1966
Жанр: сказка
Продолжительность: 01:18:43
Режиссер: Борис Рыцарев
В ролях: Борис Быстров, Додо Чоговадзе, Сарры Каррыев (озвучание - Константин Николаев), Андрей Файт, Отар Коберидзе, Екатерина Верулеишвили, Гусейнага Садыхов, Георгий Милляр, Отар Биланишвили, Валентин Брылеев, Юрий Чекулаев, Яков Беленький, Надежда Семенцова, Михаил Щербаков, Владимир Маслацов, Эммануил Геллер, Николай Горлов, Семен Сафонов, Борис Светлов
Описание: Киноверсия знаменитой восточной сказки о том, как бедный юноша Аладдин добивается руки дочери султана Багдада - красавицы Будур. В этом ему помогает чудесная волшебная лампа, в которой заточён всемогущий джинн, исполняющий любое желание хозяина лампы, - стоит лишь ее слегка потереть...
Доп. информация:
Сценарий: Виктор Виткович, Григорий Ягдфельд
Операторы: Василий Дульцев, Лев Рагозин
Художники: Анатолий Анфилов, Константин Загорский
Художник по костюмам: Э.Горбачёва
Композитор: Алексей Муравлёв (музыка из фильма)
Балетмейстер: Владимир Кирсанов
Ограничения на просмотр: для любой зрительской аудитории

Афиши

Интересные факты

  • "Волшебную лампу Аладдина" собирался снимать ещё в 1938 году режиссер Александр Андриевский. На роль колдуна-магрибинца он пригласил Андрея Файта. "Это уникальный случай - через 28 лет тому же актёру предлагают играть ту же роль в том же фильме на той же студии", — писал Файт после съёмок в фильме Рыцарева.
  • Съемки фильма проходили в Крыму. Весь "Багдад" был построен.
  • Додо Чоговадзе, сыгравшей царевну Будур, на момент съемок в фильме было 14 лет, а Борису Быстрову (Аладдину) - 20.
Качество видео: DVDRip
Формат видео: AVI
Видео: 720x304 (2.37:1), 25 fps, XviD 1.2.1, 2184 kbps avg, 0.40 bit/pixel
Аудио: 48 kHz, AC3 Dolby Digital, 3/2 (L,C,R,l,r) + LFE ch, 448.00 kbps avg

MI

Полное имя : Volshebnaya lampa Aladdina.avi
Формат : AVI
Формат/Информация : Audio Video Interleave
Размер файла : 1,45 Гбайт
Продолжительность : 1 ч. 18 м.
Общий поток : 2643 Кбит/сек
Программа кодирования : VirtualDubMod 1.5.10.3 (build 2550/release)
Библиотека кодирования : VirtualDubMod build 2550/release
Видео
Идентификатор : 0
Формат : MPEG-4 Visual
Профиль формата : Advanced [email protected]
Параметр BVOP формата : 2
Параметр QPel формата : Нет
Параметр GMC формата : Без точки перехода
Параметр матрицы формата : Выборочная
Режим смешивания : Сжатый битовый поток
Идентификатор кодека : XVID
Идентификатор кодека/Подсказка : XviD
Продолжительность : 1 ч. 18 м.
Битрейт : 2185 Кбит/сек
Ширина : 720 пикселей
Высота : 304 пикселя
Соотношение сторон : 2,35:1
Частота кадров : 25,000 кадров/сек
Цветовое пространство : YUV
Субдискретизация насыщенности : 4:2:0
Битовая глубина : 8 бит
Тип развёртки : Прогрессивная
Метод сжатия : С потерями
Бит/(Пиксели*Кадры) : 0.399
Размер потока : 1,20 Гбайт (83%)
Библиотека кодирования : XviD 1.2.1 (UTC 2008-12-04)
Аудио
Идентификатор : 1
Формат : AC-3
Формат/Информация : Audio Coding 3
Расширение режима : CM (complete main)
Параметр Endianness формата : Big
Идентификатор кодека : 2000
Продолжительность : 1 ч. 18 м.
Вид битрейта : Постоянный
Битрейт : 448 Кбит/сек
Каналы : 6 каналов
Расположение каналов : Front: L C R, Side: L R, LFE
Частота : 48,0 КГц
Битовая глубина : 16 бит
Метод сжатия : С потерями
Размер потока : 252 Мбайт (17%)
Выравнивание : Разделение по промежуткам
Продолжительность промежутка : 40 мс. (1,00 видеокадр)
Время предзагрузки промежутка : 500 мс.

Сравнение

- с BDRip
http://screenshotcomparison.com/comparison/2327
Если честно, подобного "качества" вижу впервые. Присутствуют артефакты в виде царапин, пыли, сигаретных ожогов, волосков, вертикальной паразитной решетки и прочего мусора, точно такие же, как и на DVD, - http://screenshotcomparison.com/comparison/2332/. Видимо, взяли тот же исходник (скорее всего, совэкспортфильмовскую копию) и изготовили апскейл. При этом обрезали кадр сверху и еще более усугубили ситуацию с неправильным AR. Если на DVD аспект 2.41 вместо 2.35, то на, так сказать, блюрее - уже 2.46.

Подтверждение правильности AR 2.35

[Цитировать]



Показать сообщения:    

Текущее время: 06-Дек 22:54

Часовой пояс: UTC + 3


Вы не можете начинать темы
Вы не можете отвечать на сообщения
Вы не можете редактировать свои сообщения
Вы не можете удалять свои сообщения
Вы не можете голосовать в опросах
Вы не можете прикреплять файлы к сообщениям
Вы не можете скачивать файлы

!ВНИМАНИЕ!
Сайт не предоставляет электронные версии произведений, а занимается лишь коллекционированием и каталогизацией ссылок, присылаемых и публикуемых на форуме нашими читателями. Если вы являетесь правообладателем какого-либо представленного материала и не желаете, чтобы ссылка на него находилась в нашем каталоге, свяжитесь с нами, и мы незамедлительно удалим ее. Файлы для обмена на трекере предоставлены пользователями сайта, и администрация не несет ответственности за их содержание. Просьба не заливать файлы, защищенные авторскими правами, а также файлы нелегального содержания!