[ Сегодня идет свободное скачивание без начисления Download ]


Статистика раздачи
Нет
 
   
 
Top  
 
 
Новые приключения неуловимых
Жанр: истерн, героико-приключенческий
Год выпуска: 1968
Продолжительность: 01:17:44
Режиссер: Эдмонд Кеосаян
В ролях: Михаил Метёлкин, Василий Васильев, Виктор Косых, Валентина Курдюкова, Армен Джигарханян, Борис Сичкин, Аркадий Толбузин, Владимир Ивашов, Ефим Копелян, Константин Сорокин, Иван Переверзев, Николай Федорцов, Евгений Весник, Сергей Филиппов, Савелий Крамаров, Юрий Мартынов, Галина Рыбак, Светлана Светличная, Валентина Березуцкая, Владимир Белокуров, Виктор Колпаков, Станислав Чекан, Иван Савкин, Леонид Чубаров, Юрий Боголюбов, Иван Жеваго, Людмила Карауш, Зоя Толбузина, Эдуард Абалов (Абалян), Лев Поляков, Алексей Бахарь, Эммануил Геллер, Валентин Кулик, Ян Френкель, Анатолий Бурдо, Аркадий Арзуманян, Олег Роге, Лев Фричинский, Иван Турченков, Данута Столярская, Лаура Геворкян, Эдмонд Кеосаян, Давид Кеосаян, Виктор Маркин, Дмитрий Орловский, Тамара Жемчугова-Бутырская, Галина Рыбак, Владимир Хорошун
Описание: Вторая часть бессмертного советского истерна о приключениях четырех подростков во время гражданской войны. Крым накануне освобождения от белогвардейцев. "Дьяволята" поступили на службу в Красную Армию. Возвращаясь из дозора, четверка "неуловимых" подбивает аэроплан. В планшете взятого в плен летчика они обнаруживают секретные донесения, где говорится о существовании плана оборонительных сооружений в Крыму. "Красные дьяволята" подросли, повзрослели, и ЧК поручает им важное и опасное задание: проникнуть в занятую белогвардейцами Одессу и из сейфа полковника Кудасова, начальника контрразведки, добыть карту укрепрайона, созданного белыми.
Доп. информация:
Сценарий: Эдмонд Кеосаян, Артур Макаров
Оператор: Федор Добронравов
Художник: Василий Голиков
Композиторы: Ян Френкель, Борис Мокроусов
Тексты песен: Роберт Рождественский, Инна Гофф, Эмиль Радов
Саундтрек:
Ограничения на просмотр: для любой зрительской аудитории

Афиши

Интересные факты

  • Продолжение культового фильма «Неуловимые мстители» снято по многочисленным просьбам зрителей.
  • В сценах погонь использованы французский аэроплан «Фарман II», английский автомобиль марки «Роллс-Ройс», пролётка дореволюционного российского производства (авто и пролетка находятся в музее киностудии "Мосфильм")
  • Яшка-цыган (Василий Васильев), спасаясь от погони, прыгает в море со скалы Дива (высота - около 45 метров), расположенной возле горы Кошки в поселке Симеиз в Крыму. Этот (и все другие) трюки актер выполнял сам, без дублера - так же, как и остальные "неуловимые".
  • Несмотря на то, что фильм - приключенческий, ни на какую историческую достоверность не претендует, к примеру, форма белогвардейцев воспроизведена исключительно достоверно.

Чтобы помнили...

Обратите внимание - бородатый цыган рядом с Яшкой. Узнали? Борис Сичкин собственной персоной, сыгравший в этом фильме три роли, - Касторского, цыганского барона и белокурую Жози. Он исполнил за свою жизнь множество куплетов, сыграл немало ролей, но знаменитым его сделали всего две строчки, прозвучавшие из уст "оригинального куплетиста" Бубы Касторского: "Я - одессит! Я - из Одессы! Здрасьте!.." И еще одно "кстати". Есть в этом фильме убойный эпизод. Бубу Касторского "замели" в контрразведку, он "бутафорит" перед Кудасовым, предлагает ему себя в качестве секретного агента для работы в Аргентине и произносит следующий пароль для связи: "Буйна сайра шлимазл бесса мемуча!" Так вот, "шлимазл" в переводе с идиш - чудак на букву "м". Как это цензура пропустила - до сих пор понять не могу! Мало того, что ругательство, так еще и на "мертвом языке мирового сионизма". Ай да Сичкин, ай да... Уверена, это целиком его импровизация.
"Неуловимые мстители":
"Корона Российской империи":

Об исходнике и AR

Исходный DVD выпущен с нарушенным AR (2.14 вместо 2.35). В данном рипе это исправлено.
Качество видео: DVDRip
Формат видео: AVI
Видео: 704x304 (2.32:1), 25 fps, XviD 1.2.1, 2197 kbps avg, 0.41 bit/pixel
Аудио: 48 kHz, AC3 Dolby Digital, 3/2 (L,C,R,l,r) + LFE ch, 448.00 kbps avg

MI

Полное имя : Novye priklucheniya neulovimyh.avi
Формат : AVI
Формат/Информация : Audio Video Interleave
Размер файла : 1,44 Гбайт
Продолжительность : 1 ч. 17 м.
Общий поток : 2654 Кбит/сек
Программа кодирования : VirtualDubMod 1.5.10.3 (build 2550/release)
Библиотека кодирования : VirtualDubMod build 2550/release
Видео
Идентификатор : 0
Формат : MPEG-4 Visual
Профиль формата : Advanced Simple@L5
Параметр BVOP формата : 1
Параметр QPel формата : Нет
Параметр GMC формата : Без точки перехода
Параметр матрицы формата : Выборочная
Режим смешивания : Сжатый битовый поток
Идентификатор кодека : XVID
Идентификатор кодека/Подсказка : XviD
Продолжительность : 1 ч. 17 м.
Битрейт : 2197 Кбит/сек
Ширина : 704 пикселя
Высота : 304 пикселя
Соотношение сторон : 2,35:1
Частота кадров : 25,000 кадров/сек
Цветовое пространство : YUV
Субдискретизация насыщенности : 4:2:0
Битовая глубина : 8 бит
Тип развёртки : Прогрессивная
Метод сжатия : С потерями
Бит/(Пиксели*Кадры) : 0.411
Размер потока : 1,19 Гбайт (83%)
Библиотека кодирования : XviD 1.2.1 (UTC 2008-12-04)
Аудио
Идентификатор : 1
Формат : AC-3
Формат/Информация : Audio Coding 3
Расширение режима : CM (complete main)
Идентификатор кодека : 2000
Продолжительность : 1 ч. 17 м.
Вид битрейта : Постоянный
Битрейт : 448 Кбит/сек
Каналы : 6 каналов
Расположение каналов : Front: L C R, Side: L R, LFE
Частота : 48,0 КГц
Битовая глубина : 16 бит
Метод сжатия : С потерями
Задержка видео : 2 с. 798 мс.
Размер потока : 249 Мбайт (17%)
Выравнивание : Разделение по промежуткам
Продолжительность промежутка : 40 мс. (1,00 видеокадр)
Время предзагрузки промежутка : 500 мс.

Скриншоты

Подтверждение правильности выбранного AR

[Цитировать]



Показать сообщения:    

Текущее время: 09-Дек 14:38

Часовой пояс: UTC + 3


Вы не можете начинать темы
Вы не можете отвечать на сообщения
Вы не можете редактировать свои сообщения
Вы не можете удалять свои сообщения
Вы не можете голосовать в опросах
Вы не можете прикреплять файлы к сообщениям
Вы не можете скачивать файлы

!ВНИМАНИЕ!
Сайт не предоставляет электронные версии произведений, а занимается лишь коллекционированием и каталогизацией ссылок, присылаемых и публикуемых на форуме нашими читателями. Если вы являетесь правообладателем какого-либо представленного материала и не желаете, чтобы ссылка на него находилась в нашем каталоге, свяжитесь с нами, и мы незамедлительно удалим ее. Файлы для обмена на трекере предоставлены пользователями сайта, и администрация не несет ответственности за их содержание. Просьба не заливать файлы, защищенные авторскими правами, а также файлы нелегального содержания!