[ Сегодня идет свободное скачивание без начисления Download ]


Статистика раздачи
Нет
 
   
 
Top  
 
 
Корона Российской империи, или Снова неуловимые (2 серии)
Жанр: истерн, героико-приключенческий
Год выпуска: 1970
Продолжительность: 02:09:18 (01:03:42 + 01:05:36)
Режиссер: Эдмонд Кеосаян
В ролях: Михаил Метёлкин, Виктор Косых, Василий Васильев, Валентина Курдюкова, Иван Переверзев, Армен Джигарханян, Владимир Ивашов, Владислав Стржельчик, Аркадий Толбузин, Ефим Копелян, Владимир Белокуров, Ролан Быков, Ян Френкель (озвучание - Артем Карапетян), Людмила Гурченко, Андрей Файт (озвучание - Владимир Кенигсон), Эдмонд Кеосаян, Григорий Шпигель, Нина Агапова, Яков Ленц (озвучание - Георгий Милляр), Виктор Файнлейб, Артем Карапетян, Яков Беленький, Лаура Геворкян, Анатолий Гарагуля, Александр Лавренюк, Зоя Исаева, Сергей Потикян, Сергей Стеценко, Людмила Карауш, Лариса Пашкова, Виктор Матисен, Данута Столярская, Давид Кеосаян, Маргарита Мерино, Алла Будницкая, Геннадий Морозов, Ираклий Хизанишвили, Зана Занони, Лаврентий Масоха, Арташес Ванециан, Галина Микеладзе, Юрий Мартынов, Зоя Толбузина, Лев Поляков, Николай Граббе, Леон Кочарян, Георгий Тусузов, Людмила Полякова, Михаил Селютин, Григорий Поженян, Вадим Гусев, Людмила Давыдова, Виктор Колпаков, Валентин Кулик, Борис Руднев, Олег Савосин, Галина Самохина, Станислав Чекан, Тигран Кеосаян, Светлана Светличная, Евгений Гуров, Иван Бычков, Любовь Калюжная, Михаил Розанов, Иван Савкин, Елизавета Ауэрбах, Лилита Берзиня-Приеде, Глеб Плаксин, Николай Мисаилов
Описание: Третий, последний фильм, рассказывающий о приключениях "красных дьяволят". Кончилась гражданская война. Четвёрка "неуловимых мстителей", ставших чекистами, получает новое задание: охранять музейные ценности, в том числе и большую императорскую корону. А между тем, именно ею хотят короноваться авантюристы, которые ведут в Париже борьбу за престол несуществующей Российской империи. Их пыл усиленно подогревает мсье Дюк, агент империалистической разведки, желающий под шумок положить корону себе в карман, а потом кричать на всех углах, что большевики разворовывают и распродают царские ценности. И в этом ему помогают и мешают друг другу наши старые знакомые - полковник Кудасов, его адъютант по кличке Шрам, штабс-капитан Овечкин и атаман Бурнаш. К ним присоединяется профессиональный вор Нарышкин. "Неуловимые" едут в Париж, а бывшие белогвардейцы - в Россию...
Доп. информация:
Сценарий: Александр Червинский, Эдмонд Кеосаян
Оператор: Михаил Ардабьевский
Художники: Совет Агоян, Леван Шенгелия
Композитор: Ян Френкель
Тексты песен: Роберт Рождественский, Сергей Есенин, Эмиль Радов
Саундтрек:
Ограничения на просмотр: для любой зрительской аудитории

Интересные факты

  • Третий фильм Эдмонда Кеосаяна буквально заставили снять. Но актеры уже выросли, энергетика не та, сценарий бредовый. И, как обычно бывает в таких случаях, завистники и недоброжелатели нашлись без труда. Появились недобрые критические статьи в газетах, журналах, причем еще до официального выхода фильма на широкий экран. Кеосаян тяжело переживал, жалел, что поддался на уговоры и согласился снимать. Общая обстановка была настолько тяжелой, что он уехал в Армению и до 1982 года работал на "Арменфильме", снимая кино национальной тематики.
  • Бриллианты с большой императорской короны действительно были проданы (или, точнее, заложены под заем в $25000 ) большевиками в 1919-м и выкуплены в 1950 году.
  • Музей, из которого крадется корона, — собирательный образ. В нём мы видим «Троицу» Андрея Рублева (Третьяковская галерея), картины «Флора» и «Даная» Рембрандта, «Персей и Андромеда» Рубенса (Государственный Эрмитаж). Фильм снимался в тех же «музейных» декорациях, что и детективы «Старики-разбойники» и «Возвращение святого Луки».
  • Копию большой императорской короны изготовили в Чехословакии. Сейчас она находится в музее киностудии "Мосфильм".
  • Роль капитана парохода "Глория" сыграл настоящий капитан - Анатолий Григорьевич Гарагуля, капитан теплохода "Грузия" Черноморского морского пароходства, участник Великой Отечественной войны (стрелок–радист на бомбардировщике), друг Владимира Высоцкого.

Об исходнике и AR

Исходный DVD выпущен с нарушенным AR (2.14 вместо 2.35). В данном рипе это исправлено.
"Неуловимые мстители" -
"Новые приключения неуловимых" -
Качество видео: DVDRip
Формат видео: AVI
Видео:
1 серия - 704x304 (2.32:1), 25 fps, XviD 1.2.1, 1955 kbps avg, 0.36 bit/pixel
2 серия - 704x304 (2.32:1), 25 fps, XviD 1.2.1, 1885 kbps avg, 0.35 bit/pixel
Аудио: 48 kHz, AC3 Dolby Digital, 3/2 (L,C,R,l,r) + LFE ch, 448.00 kbps avg

MI

Полное имя : F:\Korona imperii\Part 1.avi
Формат : AVI
Формат/Информация : Audio Video Interleave
Размер файла : 1,07 Гбайт
Продолжительность : 1 ч. 3 м.
Общий поток : 2412 Кбит/сек
Программа кодирования : VirtualDubMod 1.5.10.3 (build 2550/release)
Библиотека кодирования : VirtualDubMod build 2550/release
Видео
Идентификатор : 0
Формат : MPEG-4 Visual
Профиль формата : Advanced Simple@L5
Параметр BVOP формата : 1
Параметр QPel формата : Нет
Параметр GMC формата : Без точки перехода
Параметр матрицы формата : Выборочная
Режим смешивания : Сжатый битовый поток
Идентификатор кодека : XVID
Идентификатор кодека/Подсказка : XviD
Продолжительность : 1 ч. 3 м.
Битрейт : 1955 Кбит/сек
Ширина : 704 пикселя
Высота : 304 пикселя
Соотношение сторон : 2,35:1
Частота кадров : 25,000 кадров/сек
Цветовое пространство : YUV
Субдискретизация насыщенности : 4:2:0
Битовая глубина : 8 бит
Тип развёртки : Прогрессивная
Метод сжатия : С потерями
Бит/(Пиксели*Кадры) : 0.365
Размер потока : 891 Мбайт (81%)
Библиотека кодирования : XviD 1.2.1 (UTC 2008-12-04)
Аудио
Идентификатор : 1
Формат : AC-3
Формат/Информация : Audio Coding 3
Расширение режима : CM (complete main)
Идентификатор кодека : 2000
Продолжительность : 1 ч. 3 м.
Вид битрейта : Постоянный
Битрейт : 448 Кбит/сек
Каналы : 6 каналов
Расположение каналов : Front: L C R, Side: L R, LFE
Частота : 48,0 КГц
Битовая глубина : 16 бит
Метод сжатия : С потерями
Задержка видео : 1 с. 29 мс.
Размер потока : 204 Мбайт (19%)
Выравнивание : Разделение по промежуткам
Продолжительность промежутка : 40 мс. (1,00 видеокадр)
Время предзагрузки промежутка : 500 мс.-Полное имя : F:\Korona imperii\Part 2.avi
Формат : AVI
Формат/Информация : Audio Video Interleave
Размер файла : 1,07 Гбайт
Продолжительность : 1 ч. 5 м.
Общий поток : 2342 Кбит/сек
Программа кодирования : VirtualDubMod 1.5.10.3 (build 2550/release)
Библиотека кодирования : VirtualDubMod build 2550/release
Видео
Идентификатор : 0
Формат : MPEG-4 Visual
Профиль формата : Advanced Simple@L5
Параметр BVOP формата : 1
Параметр QPel формата : Нет
Параметр GMC формата : Без точки перехода
Параметр матрицы формата : Выборочная
Режим смешивания : Сжатый битовый поток
Идентификатор кодека : XVID
Идентификатор кодека/Подсказка : XviD
Продолжительность : 1 ч. 5 м.
Битрейт : 1885 Кбит/сек
Ширина : 704 пикселя
Высота : 304 пикселя
Соотношение сторон : 2,35:1
Частота кадров : 25,000 кадров/сек
Цветовое пространство : YUV
Субдискретизация насыщенности : 4:2:0
Битовая глубина : 8 бит
Тип развёртки : Прогрессивная
Метод сжатия : С потерями
Бит/(Пиксели*Кадры) : 0.352
Размер потока : 885 Мбайт (80%)
Библиотека кодирования : XviD 1.2.1 (UTC 2008-12-04)
Аудио
Идентификатор : 1
Формат : AC-3
Формат/Информация : Audio Coding 3
Расширение режима : CM (complete main)
Идентификатор кодека : 2000
Продолжительность : 1 ч. 5 м.
Вид битрейта : Постоянный
Битрейт : 448 Кбит/сек
Каналы : 6 каналов
Расположение каналов : Front: L C R, Side: L R, LFE
Частота : 48,0 КГц
Битовая глубина : 16 бит
Метод сжатия : С потерями
Задержка видео : 1 с. 833 мс.
Размер потока : 210 Мбайт (19%)
Выравнивание : Разделение по промежуткам
Продолжительность промежутка : 40 мс. (1,00 видеокадр)
Время предзагрузки промежутка : 500 мс.

Скриншоты

Подтверждение правильности выбранного AR

[Цитировать]



Показать сообщения:    

Текущее время: 08-Дек 03:12

Часовой пояс: UTC + 3


Вы не можете начинать темы
Вы не можете отвечать на сообщения
Вы не можете редактировать свои сообщения
Вы не можете удалять свои сообщения
Вы не можете голосовать в опросах
Вы не можете прикреплять файлы к сообщениям
Вы не можете скачивать файлы

!ВНИМАНИЕ!
Сайт не предоставляет электронные версии произведений, а занимается лишь коллекционированием и каталогизацией ссылок, присылаемых и публикуемых на форуме нашими читателями. Если вы являетесь правообладателем какого-либо представленного материала и не желаете, чтобы ссылка на него находилась в нашем каталоге, свяжитесь с нами, и мы незамедлительно удалим ее. Файлы для обмена на трекере предоставлены пользователями сайта, и администрация не несет ответственности за их содержание. Просьба не заливать файлы, защищенные авторскими правами, а также файлы нелегального содержания!