[ Сегодня идет свободное скачивание без начисления Download ]


Статистика раздачи
Нет
 
   
 
Top  
 
 
Максимка
Жанр: мелодрама, приключения
Год выпуска: 1952
Продолжительность: 01:13:37
Режиссер: Владимир Браун
В ролях: Борис Андреев, Николай Крючков, Толя Бавыкин, Сергей Курилов, Степан Каюков, Владимир Балашов, Вячеслав Тихонов, Марк Бернес, Петр Соболевский, Константин Сорокин, Николай Пишванов, Андрей Сова, Михаил Пуговкин, Михаил Астангов, Эммануил Геллер, Александр Кашперов, Роберт Росс, Лев Олевский, Иван Матвеев
Описание: 1864 год. В водах Атлантического океана русские моряки с корвета "Богатырь" спасают с затонувшего во время шторма судна "Бетси", занимавшегося перевозкой рабов, негритенка, которого называют Максимкой. Запуганный работорговцами, мальчонка боялся белых людей, но постепенно, видя от окружающих только заботу и ласку, он привязался к команде. Смышленый и ласковый, Максимка стал всеобщим любимцем, но особенно трогательно заботился о нем добродушный матрос Лучкин. А уж мальчишка в нём души не чаял. Только вот незадача, очень любил Лучкин выпить, и однажды с ним случилась беда: его похитили вербовщики рабочей силы, и оказался он на американском судне...
Доп. информация: По мотивам одноименной повести русского писателя XIX века Константина Станюковича. Лидер советского проката (1953, 5 место) - 32.9 млн. зрителей. Фильм перешел в общественное достояние.
Сценарий: Григорий Колтунов, Константин Станюкович
Оператор: Алексей Мишурин
Художники: Михаил Юферов, Цуния Майер
Композиторы: Вадим Гомоляка, Игорь Шамо
Ограничения на просмотр: для любой зрительской аудитории

Афиша

Чтобы помнили...

Режиссер Владимир Браун любил море и снял много фильмов на эту тему - "Сокровища погибшего корабля", "Моряки", "Морской ястреб", "В дальнем плавании", "Матрос Чижик".
В 1952 году, когда вышел фильм, на многих киноафишах Архангельска писали: "В роли Максимки - архангельский школьник Толя Бавыкин". О судьба ребенка после съемок в фильме долгое время не была почти никакой информации. Точно известно было лишь одно - он умер. Вот две версии его смерти. Есть еще одна: якобы, Толя погиб, когда ему было 14 лет. Он прицепился к грузовику зимой, катаясь на коньках, не удержался и упал. От удара появилась водянка мозга, приведшая к смерти.

О кропе

Черная рамка в исходнике не просто плавающая, а очень плавающая.

скрытый текст

Поэтому произведен максимально возможный кроп, не затрагивающий полезную площадь кадра.

О звуке

Звук в исходном DVD по качеству значительно хуже, нежели видео. "Умельцы", выпускавшие диск, сделали некачественное шумоподавление, отчего в некоторых местах появилось отчетливое "металлическое" звучание. Пробовала исправить - получается еще хуже. Оставила, как есть, лишь выравняла громкость и удалила щелчки и треск.
Качество видео: DVDRip
Формат видео: AVI
Видео: 688x512 (1.34:1), 25 fps, XviD 64, 2400 kbps avg, 0.27 bit/pixel
Аудио: 48 kHz, AC3 Dolby Digital, 2/0 (L,R) ch, 224 kbps

MI

Полное имя : Maksimka.avi
Формат : AVI
Формат/Информация : Audio Video Interleave
Размер файла : 1,35 Гбайт
Продолжительность : 1 ч. 13 м.
Общий поток : 2634 Кбит/сек
Программа кодирования : VirtualDubMod 1.5.10.3 (build 2550/release)
Библиотека кодирования : VirtualDubMod build 2550/release
Видео
Идентификатор : 0
Формат : MPEG-4 Visual
Профиль формата : Advanced Simple@L5
Параметр BVOP формата : 2
Параметр QPel формата : Нет
Параметр GMC формата : Без точки перехода
Параметр матрицы формата : Выборочная
Идентификатор кодека : XVID
Идентификатор кодека/Подсказка : XviD
Продолжительность : 1 ч. 13 м.
Битрейт : 2400 Кбит/сек
Ширина : 688 пикселей
Высота : 512 пикселей
Соотношение сторон : 4:3
Частота кадров : 25,000 кадров/сек
Цветовое пространство : YUV
Субдискретизация насыщенности : 4:2:0
Битовая глубина : 8 бит
Тип развёртки : Прогрессивная
Метод сжатия : С потерями
Бит/(Пиксели*Кадры) : 0.273
Размер потока : 1,23 Гбайт (91%)
Библиотека кодирования : XviD 64
Аудио
Идентификатор : 1
Формат : AC-3
Формат/Информация : Audio Coding 3
Расширение режима : CM (complete main)
Параметр Endianness формата : Big
Идентификатор кодека : 2000
Продолжительность : 1 ч. 13 м.
Вид битрейта : Постоянный
Битрейт : 224 Кбит/сек
Каналы : 2 канала
Расположение каналов : Front: L R
Частота : 48,0 КГц
Битовая глубина : 16 бит
Метод сжатия : С потерями
Размер потока : 118 Мбайт (9%)
Выравнивание : Разделение по промежуткам
Продолжительность промежутка : 40 мс. (1,00 видеокадр)
Время предзагрузки промежутка : 500 мс.

Скриншоты

[Цитировать]



Показать сообщения:    

Текущее время: 10-Дек 13:55

Часовой пояс: UTC + 3


Вы не можете начинать темы
Вы не можете отвечать на сообщения
Вы не можете редактировать свои сообщения
Вы не можете удалять свои сообщения
Вы не можете голосовать в опросах
Вы не можете прикреплять файлы к сообщениям
Вы не можете скачивать файлы

!ВНИМАНИЕ!
Сайт не предоставляет электронные версии произведений, а занимается лишь коллекционированием и каталогизацией ссылок, присылаемых и публикуемых на форуме нашими читателями. Если вы являетесь правообладателем какого-либо представленного материала и не желаете, чтобы ссылка на него находилась в нашем каталоге, свяжитесь с нами, и мы незамедлительно удалим ее. Файлы для обмена на трекере предоставлены пользователями сайта, и администрация не несет ответственности за их содержание. Просьба не заливать файлы, защищенные авторскими правами, а также файлы нелегального содержания!