[ Сегодня идет свободное скачивание без начисления Download ]


Статистика раздачи
Нет
 
   
 
Top  
 
 
Коронный номер
Жанр: приключения
Год выпуска: 1986
Продолжительность: 01:03:17
Перевод: профессиональный (двухголосый закадровый)
Режиссёр: Имантс Кренберг
В ролях: Петерис Жихарс, Юрис Стренга, Инесса Саулите, Гунта Виркава, Лига Клиесмете, Вилнис Маргевич, Янис Зариньш, Янис Самаускас, Петерис Лиепинь
Описание: Однажды утром десятилетний фотограф-любитель Угис, снимая очередной восход солнца, обратил внимание на тот факт, что буксир дяди Яниса не вышел, как обычно, в море. Это обстоятельство послужило поводом для дальнейших расследований и умозаключений юного Шерлока Холмса, вынужденного осознать в конце концов, что добродушный и всегда отзывчивый сосед занимается браконьерством. Герой собрал убедительные доказательства и передал их в милицию..
Доп. информация:
:
Качество видео: TVRip
Формат видео: MPEG2
Видео: MPEG2 Video 720x576 (4:3) 25.00fps 7337 Кбит/сек
Аудио: MPEG Audio 48000Hz stereo192kbps

MediaInfo

Общее
Полное имя : G:\TORENT2\KORONNIhYj.NOMER.1986.mpg
Формат : MPEG-PS
Размер файла : 3,40 Гбайт
Продолжительность : 1 ч. 3 м.
Общий поток : 7681 Кбит/сек
Видео
Идентификатор : 224 (0xE0)
Формат : MPEG Video
Версия формата : Version 2
Профиль формата : [email protected]
Параметр BVOP формата : Да
Параметр матрицы формата : По умолчанию
Продолжительность : 1 ч. 3 м.
Вид битрейта : Переменный
Битрейт : 7337 Кбит/сек
Номинальный битрейт : 9282 Кбит/сек
Ширина : 720 пикс.
Высота : 576 пикс.
Соотношение сторон : 4:3
Частота кадров : 25,000 кадр/сек
Стандарт вещания : PAL
Цветовое пространство : YUV
Подвыборка цветности : 4:2:0
Битовая глубина : 8 бит
Тип развёртки : Чересстрочная
Порядок развёртки : Верхнее поле первое
Метод сжатия : С потерями
Бит/(Пиксели*Кадры) : 0.708
Размер потока : 3,24 Гбайт (96%)
Аудио
Идентификатор : 192 (0xC0)
Формат : MPEG Audio
Версия формата : Version 1
Профиль формата : Layer 2
Продолжительность : 1 ч. 3 м.
Вид битрейта : Постоянный
Битрейт : 192 Кбит/сек
Каналы : 2 канала
Частота : 48,0 КГц
Метод сжатия : С потерями
Размер потока : 86,9 Мбайт (2%)

Скриншоты

[Цитировать]



Показать сообщения:    

Текущее время: 05-Дек 13:37

Часовой пояс: UTC + 3


Вы не можете начинать темы
Вы не можете отвечать на сообщения
Вы не можете редактировать свои сообщения
Вы не можете удалять свои сообщения
Вы не можете голосовать в опросах
Вы не можете прикреплять файлы к сообщениям
Вы не можете скачивать файлы

!ВНИМАНИЕ!
Сайт не предоставляет электронные версии произведений, а занимается лишь коллекционированием и каталогизацией ссылок, присылаемых и публикуемых на форуме нашими читателями. Если вы являетесь правообладателем какого-либо представленного материала и не желаете, чтобы ссылка на него находилась в нашем каталоге, свяжитесь с нами, и мы незамедлительно удалим ее. Файлы для обмена на трекере предоставлены пользователями сайта, и администрация не несет ответственности за их содержание. Просьба не заливать файлы, защищенные авторскими правами, а также файлы нелегального содержания!