[ Сегодня идет свободное скачивание без начисления Download ]


Статистика раздачи
Нет
 
   
 
Top  
 
 
Старая, старая сказка
Жанр: Фильм-сказка
Год выпуска: 1968
Продолжительность: 01:31:27
Режиссёр: Надежда Кошеверова
Субтитры: русский, английский, французский, испанский, португальский, немецкий, нидерландский, шведский, итальянский, японский (растровые DVD), иврит (растровые DVD)
В ролях: Олег Даль, Марина Неёлова, Георгий Вицин, Игорь Дмитриев, Вера Титова, Анатолий Абрамов, А. Аввакумов, Н. Белчивичин, М. Дмитриевский, Владимир Этуш
Описание: Эта веселая и одновременно грустная история снята по мотивам популярных сказок датского писателя Ганса Христиана Андерсена. В фильме параллельно развиваются два сюжета. В придорожном трактире куклы разыгрывают для своего хозяина веселую волшебную историю о храбром солдате и злой принцессе, о ведьме и добром волшебнике, о сказочном городе, в котором жил смешной и глупый король. В кукольном представлении все заканчивается хорошо. Параллельный же сюжет фильма отличается от первого: в нем больше лирической грусти. В реальной жизни, в отличие от кукольного спектакля, отношения молодого кукольника и его возлюбленной развиваются не столь просто.

Доп. информация: Обработка изображения для восстановления и сохранения наибольшего количества деталей.
Внимание, на большинстве бытовых DVD-проигрывателей отсутствует поддержка MKV/X264 из этой раздачи.
Качество видео: DVDRip-AVC
Формат видео: MKV
Видео: X264, 680x404 (анаморфное 992x404), 25 кадр/с, 2266 кбит/с
Аудио: русский, AC3, 48 кгц, 448 кбит/с, 5.1
Субтитры 1: Russian, SRT
Субтитры 2: English, SRT
Субтитры 3: French, SRT
Субтитры 4: German, SRT
Субтитры 5: Spanish, SRT
Субтитры 6: Dutch, SRT
Субтитры 7: Portuguese, SRT
Субтитры 8: Italian, SRT
Субтитры 9: Swedish, SRT
Субтитры 10: Japanese, VobSub
Субтитры 11: Hebrew, VobSub
Аудио 2 (отдельным файлом): английский (дубляж), AC3, 48 кгц, 448 кбит/с, 5.1
Аудио 3 (отдельным файлом): французский (дубляж), AC3, 48 кгц, 448 кбит/с, 5.1

MediaInfo / x264 log

log

x264 [info]: profile High, level 3.1
x264 [info]: frame I:839 Avg QP:19.10 size: 53379 PSNR Mean Y:43.25 U:47.99 V:48.08 Avg:44.33 Global:44.13
x264 [info]: frame P:29221 Avg QP:20.56 size: 27315 PSNR Mean Y:41.38 U:46.79 V:46.84 Avg:42.55 Global:42.34
x264 [info]: frame B:107136 Avg QP:21.94 size: 6943 PSNR Mean Y:40.26 U:46.69 V:46.73 Avg:41.54 Global:41.38
x264 [info]: consecutive B-frames: 1.1% 2.9% 7.4% 20.1% 17.5% 47.0% 3.0% 0.5% 0.2% 0.1% 0.1%
x264 [info]: mb I I16..4: 0.9% 86.7% 12.4%
x264 [info]: mb P I16..4: 0.1% 13.9% 2.1% P16..4: 37.8% 33.1% 10.9% 0.9% 0.8% skip: 0.4%
x264 [info]: mb B I16..4: 0.0% 0.7% 0.2% B16..8: 37.8% 13.4% 5.0% direct: 9.6% skip:33.4% L0:30.7% L1:40.0% BI:29.2%
x264 [info]: 8x8 transform intra:85.1% inter:61.2%
x264 [info]: direct mvs spatial:100.0% temporal:0.0%
x264 [info]: coded y,uvDC,uvAC intra: 95.6% 83.5% 53.4% inter: 43.7% 29.5% 2.8%
x264 [info]: i16 v,h,dc,p: 44% 34% 5% 17%
x264 [info]: i8 v,h,dc,ddl,ddr,vr,hd,vl,hu: 17% 9% 8% 9% 12% 14% 10% 12% 10%
x264 [info]: i4 v,h,dc,ddl,ddr,vr,hd,vl,hu: 46% 7% 3% 5% 8% 10% 7% 8% 6%
x264 [info]: i8c dc,h,v,p: 28% 27% 29% 16%
x264 [info]: Weighted P-Frames: Y:41.9% UV:27.0%
x264 [info]: ref P L0: 47.6% 17.0% 12.9% 5.3% 3.3% 2.7% 2.2% 1.4% 1.3% 1.1% 1.0% 0.9% 0.9% 0.8% 0.8% 0.7%
x264 [info]: ref B L0: 89.4% 5.1% 1.4% 0.9% 0.6% 0.5% 0.4% 0.3% 0.3% 0.3% 0.2% 0.2% 0.2% 0.1% 0.1%
x264 [info]: ref B L1: 98.2% 1.8%
x264 [info]: SSIM Mean Y:0.9646154 (14.512db)
x264 [info]: PSNR Mean Y:40.513 U:46.721 V:46.759 Avg:41.770 Global:41.577 kb/s:2313.18
encoded 137196 frames, 0.67 fps, 2313.18 kb/s
Format : Matroska
File size : 1.77 GiB
Duration : 1h 31mn
Overall bit rate : 2 769 Kbps
Movie name : Старая, старая сказка (1968)
Encoded date : UTC 2011-09-11 21:44:27
Writing application : mkvmerge v2.2.0 ('Turn It On Again') built on Mar 4 2008 12:58:26
Writing library : libebml v0.7.7 + libmatroska v0.8.1
Video
ID : 1
Format : AVC
Format/Info : Advanced Video Codec
Format profile : High@L3.1
Format settings, CABAC : Yes
Format settings, ReFrames : 16 frames
Muxing mode : Container profile=Unknown@3.1
Codec ID : V_MPEG4/ISO/AVC
Duration : 1h 31mn
Bit rate : 2 266 Kbps
Width : 680 pixels
Height : 404 pixels
Display aspect ratio : 2.456
Original display aspect ratio : 1.683
Frame rate : 25.000 fps
Resolution : 24 bits
Colorimetry : 4:2:0
Scan type : Progressive
Bits/(Pixel*Frame) : 0.330
Stream size : 1.45 GiB (82%)
Title : title video track
Writing library : x264 core 115 r1995 c1e60b9
Encoding settings : cabac=1 / ref=16 / deblock=1:0:0 / analyse=0x3:0x133 / me=umh / subme=10 / psy=1 / psy_rd=1.00:0.00 / mixed_ref=1 / me_range=48 / chroma_me=1 / trellis=2 / 8x8dct=1 / cqm=0 / deadzone=21,11 / fast_pskip=1 / chroma_qp_offset=-2 / threads=6 / sliced_threads=0 / nr=0 / decimate=1 / interlaced=0 / bluray_compat=0 / constrained_intra=0 / bframes=10 / b_pyramid=2 / b_adapt=2 / b_bias=0 / direct=3 / weightb=1 / open_gop=0 / weightp=2 / keyint=250 / keyint_min=25 / scenecut=40 / intra_refresh=0 / rc=crf / mbtree=0 / crf=18.4 / qcomp=0.74 / qpmin=0 / qpmax=51 / qpstep=4 / ip_ratio=1.40 / pb_ratio=1.30 / aq=2:1.00
Language : Russian
Audio
ID : 2
Format : AC-3
Format/Info : Audio Coding 3
Codec ID : A_AC3
Duration : 1h 31mn
Bit rate mode : Constant
Bit rate : 448 Kbps
Channel(s) : 6 channels
Channel positions : Front: L C R, Surround: L R, LFE
Sampling rate : 48.0 KHz
Stream size : 293 MiB (16%)
Title : title audio track
Language : Russian
Text #1
ID : 3
Format : UTF-8
Codec ID : S_TEXT/UTF8
Codec ID/Info : UTF-8 Plain Text
Title : RUS
Language : Russian
Text #2
ID : 4
Format : UTF-8
Codec ID : S_TEXT/UTF8
Codec ID/Info : UTF-8 Plain Text
Title : ENG
Language : English
Text #3
ID : 5
Format : UTF-8
Codec ID : S_TEXT/UTF8
Codec ID/Info : UTF-8 Plain Text
Title : FRA
Language : French
Text #4
ID : 6
Format : UTF-8
Codec ID : S_TEXT/UTF8
Codec ID/Info : UTF-8 Plain Text
Title : DEU
Language : German
Text #5
ID : 7
Format : UTF-8
Codec ID : S_TEXT/UTF8
Codec ID/Info : UTF-8 Plain Text
Title : ESP
Language : Spanish
Text #6
ID : 8
Format : UTF-8
Codec ID : S_TEXT/UTF8
Codec ID/Info : UTF-8 Plain Text
Title : NED
Language : Dutch
Text #7
ID : 9
Format : UTF-8
Codec ID : S_TEXT/UTF8
Codec ID/Info : UTF-8 Plain Text
Title : POR
Language : Portuguese
Text #8
ID : 10
Format : UTF-8
Codec ID : S_TEXT/UTF8
Codec ID/Info : UTF-8 Plain Text
Title : ITA
Language : Italian
Text #9
ID : 11
Format : UTF-8
Codec ID : S_TEXT/UTF8
Codec ID/Info : UTF-8 Plain Text
Title : SWE
Language : Swedish
Text #10
ID : 12
Format : VobSub
Codec ID : S_VOBSUB
Codec ID/Info : The same subtitle format used on DVDs
Title : JAP
Language : Japanese
Text #11
ID : 13
Format : VobSub
Codec ID : S_VOBSUB
Codec ID/Info : The same subtitle format used on DVDs
Title : HEB
Language : Hebrew

Скриншоты

Как добавить дополнительные файлы к основному?

Читать здесь ->

Для монтажа доп. файлов достаточно программы mkvToolNix (ссылка на дистрибутив для Windows):
Добавляем файлы при помощи кнопки "add" (или перетаскиваем в окно программы), оставляем галочки там где нужно, кнопками "Up / Down" выстраиваем потоки в нужном порядке. На вкладке "Format specific options" в поле "Delay (in ms)" смещение звука автоматически установится при добавлении файла с именем "...DELAY ***ms..." (если не указано, оставить 0).

иллюстрация

На закладке "General track option" можно выставить следующие параметры:
  • "Default track flag" - если выставить в значение "yes", то поток будет проигрываться по-умолчанию.
  • "Track name" - наименование потока, например, "Комментарии режиссера", "Дубляж", "Закадровый"...
  • "Language" - язык потока.

    иллюстрация

FAQ по просмотру MKV/h.264/AAC














Помогайте раздавать - это лучше, чем "спасибо" !

[Цитировать]



Показать сообщения:    

Текущее время: 10-Дек 19:31

Часовой пояс: UTC + 3


Вы не можете начинать темы
Вы не можете отвечать на сообщения
Вы не можете редактировать свои сообщения
Вы не можете удалять свои сообщения
Вы не можете голосовать в опросах
Вы не можете прикреплять файлы к сообщениям
Вы не можете скачивать файлы

!ВНИМАНИЕ!
Сайт не предоставляет электронные версии произведений, а занимается лишь коллекционированием и каталогизацией ссылок, присылаемых и публикуемых на форуме нашими читателями. Если вы являетесь правообладателем какого-либо представленного материала и не желаете, чтобы ссылка на него находилась в нашем каталоге, свяжитесь с нами, и мы незамедлительно удалим ее. Файлы для обмена на трекере предоставлены пользователями сайта, и администрация не несет ответственности за их содержание. Просьба не заливать файлы, защищенные авторскими правами, а также файлы нелегального содержания!