[ Сегодня идет свободное скачивание без начисления Download ]


Статистика раздачи
Нет
 
   
 
Top  
 
 
Кортик / качество, канал Культура
Жанр: детский
Год выпуска: 1973
Продолжительность: 01:08:28+01:10:18+01:09:22
Источник: собственный рип
Режиссёр: Николай Калинин
В ролях: * Сергей Шевкуненко — Миша Поляков (озвучивание — Ярослава Турылёва)
* Владимир Дичковский — Генка Петров (озвучивание — Анна Власова)
* Игорь Шульженко — Слава Эльдаров
* Михаил Голубович — Полевой
* Эммануил Виторган — Никитский
* Наталья Чемодурова — мама Миши
* Роман Филиппов — Филин
* Виталий Быков — Севостьянов
* Тамара Трушина — Агрипина Тихоновна, тётя Генки
* Виктор Сергачев — дядя Сеня
* Леонид Кмит — дедушка Миши
* Зоя Фёдорова — бабушка Миши
и др.
Описание: «Кортик» — трёхсерийный художественный телевизионный фильм, снятый в 1973 году по одноименному роману Анатолия Рыбакова режиссёром Николаем Калининым. Первая часть приключенческой трилогии.
Доп. информация: Главный недостаток всех предыдущих релизов - существенная обрезка кадра от оригинала, порой из первоначального тв-варианта соотношением 1,33 делали 1,5 и более. Качество картинки тоже не блеск. На канале Культура была показана нормальная чистая кинопленка.

Sokolmy2/DougRoss



Альтернативные раздачи:
Семпл: http://multi-up.com/566812
Качество видео: SATRip
Формат видео: AVI
Видео: XviD, 640x480, 1536 kbps, 25 fps
Аудио: mp3, 44.1 kHz, 80 kbps, 1 ch

MediaInfo

General
Complete name : D:\Temp\Кортик 1.avi
Format : AVI
Format/Info : Audio Video Interleave
File size : 794 MiB
Duration : 1h 8mn
Overall bit rate : 1 621 Kbps
Writing application : MEncoder UNKNOWN-4.2.4
Writing library : MPlayer
Video
ID : 0
Format : MPEG-4 Visual
Format profile : Advanced [email protected]
Format settings, BVOP : Yes
Format settings, QPel : No
Format settings, GMC : No warppoints
Format settings, Matrix : Default (MPEG)
Codec ID : DX50
Codec ID/Hint : DivX 5
Duration : 1h 8mn
Bit rate : 1 528 Kbps
Width : 640 pixels
Height : 480 pixels
Display aspect ratio : 4:3
Frame rate : 25.000 fps
Color space : YUV
Chroma subsampling : 4:2:0
Bit depth : 8 bits
Scan type : Progressive
Bits/(Pixel*Frame) : 0.199
Stream size : 749 MiB (94%)
Writing library : XviD 1.2.1 (UTC 2008-12-04)
Audio
ID : 1
Format : MPEG Audio
Format version : Version 1
Format profile : Layer 3
Codec ID : 55
Codec ID/Hint : MP3
Duration : 1h 8mn
Bit rate mode : Constant
Bit rate : 80.0 Kbps
Channel(s) : 1 channel
Sampling rate : 44.1 KHz
Video delay : 40ms
Stream size : 39.2 MiB (5%)
Alignment : Aligned on interleaves
Interleave, duration : 26 ms (0.65 video frame)

Скриншоты

[Цитировать]



Показать сообщения:    

Текущее время: 04-Дек 17:18

Часовой пояс: UTC + 3


Вы не можете начинать темы
Вы не можете отвечать на сообщения
Вы не можете редактировать свои сообщения
Вы не можете удалять свои сообщения
Вы не можете голосовать в опросах
Вы не можете прикреплять файлы к сообщениям
Вы не можете скачивать файлы

!ВНИМАНИЕ!
Сайт не предоставляет электронные версии произведений, а занимается лишь коллекционированием и каталогизацией ссылок, присылаемых и публикуемых на форуме нашими читателями. Если вы являетесь правообладателем какого-либо представленного материала и не желаете, чтобы ссылка на него находилась в нашем каталоге, свяжитесь с нами, и мы незамедлительно удалим ее. Файлы для обмена на трекере предоставлены пользователями сайта, и администрация не несет ответственности за их содержание. Просьба не заливать файлы, защищенные авторскими правами, а также файлы нелегального содержания!