[ Сегодня идет свободное скачивание без начисления Download ]


Статистика раздачи
Нет
 
   
 
Top  
 
 
Республика Вороньей улицы
Жанр: киноповесть
Год выпуска: 1970
Продолжительность: 01:15:31
Перевод: профессиональный (двухголосый)
Режиссёр: Ада Неретниеце
В ролях: Андрис Лиелайс, А. Цивцс, А. Кралисса, Айвар Лиепинь, Андрис Апинис, В. Риепса, М. Турке, А. Булдинскис, Гинтс Берзиньш, Л. Стродс, Велта Лине, Эльза Радзиня, Мария Подгурская, Юрис Леяскалнс, Янис Мелдерис, Эрика Ферда, Харальд Топсис, Эвалдс Валтерс
Описание: Действие фильма происходит в одном из рабочих районов Риги, сразу после революции 1905 года. Ребята Вороньей улицы, чьи отцы трудятся на ближайших заводах и фабриках, противостоят «Империи Тулиана» — группе мальчишек, детей лавочников, с соседней улицы Лауку.
В детский мир невольно входит политика.

Доп. информация:
Сценарист: Янис Плотниекс
Оператор: Зигурд Дудиньш
Композитор: Маргер Заринь
Производство: Рижская киностудия
Премьера: 27 марта 1972 (Москва)


SATRip в AVI с одноголосым переводом
Качество видео: TVRip
Формат видео: MPEG2
Видео: MPEG2 Video 720x576 (4:3) 25.00fps 5379 Кбит/сек
Аудио: MPEG Audio 48000Hz stereo192kbps

MediaInfo

Общее
Полное имя : G:\TORENT2\RESPUBLIKA.VORONJEYj.ULICIh.1970.mpg
Формат : MPEG-PS
Размер файла : 3,00 Гбайт
Продолжительность : 1 ч. 15 м.
Общий поток : 5684 Кбит/сек
Видео
Идентификатор : 224 (0xE0)
Формат : MPEG Video
Версия формата : Version 2
Профиль формата : Main@Main
Параметр BVOP формата : Да
Параметр матрицы формата : По умолчанию
Продолжительность : 1 ч. 15 м.
Вид битрейта : Переменный
Битрейт : 5379 Кбит/сек
Номинальный битрейт : 9282 Кбит/сек
Ширина : 720 пикс.
Высота : 576 пикс.
Соотношение сторон : 4:3
Частота кадров : 25,000 кадр/сек
Стандарт вещания : PAL
Цветовое пространство : YUV
Подвыборка цветности : 4:2:0
Битовая глубина : 8 бит
Тип развёртки : Чересстрочная
Порядок развёртки : Верхнее поле первое
Метод сжатия : С потерями
Бит/(Пиксели*Кадры) : 0.519
Размер потока : 2,84 Гбайт (95%)
Аудио
Идентификатор : 192 (0xC0)
Формат : MPEG Audio
Версия формата : Version 1
Профиль формата : Layer 2
Продолжительность : 1 ч. 15 м.
Вид битрейта : Постоянный
Битрейт : 192 Кбит/сек
Каналы : 2 канала
Частота : 48,0 КГц
Метод сжатия : С потерями
Размер потока : 104 Мбайт (3%)

Скриншоты

[Цитировать]



Показать сообщения:    

Текущее время: 03-Дек 01:17

Часовой пояс: UTC + 3


Вы не можете начинать темы
Вы не можете отвечать на сообщения
Вы не можете редактировать свои сообщения
Вы не можете удалять свои сообщения
Вы не можете голосовать в опросах
Вы не можете прикреплять файлы к сообщениям
Вы не можете скачивать файлы

!ВНИМАНИЕ!
Сайт не предоставляет электронные версии произведений, а занимается лишь коллекционированием и каталогизацией ссылок, присылаемых и публикуемых на форуме нашими читателями. Если вы являетесь правообладателем какого-либо представленного материала и не желаете, чтобы ссылка на него находилась в нашем каталоге, свяжитесь с нами, и мы незамедлительно удалим ее. Файлы для обмена на трекере предоставлены пользователями сайта, и администрация не несет ответственности за их содержание. Просьба не заливать файлы, защищенные авторскими правами, а также файлы нелегального содержания!