[ Today is free to download without increasing Download ]

DL-List and Torrent activity
Посторонним вход разрешен
Жанр: детский, приключения, семейный
Год выпуска: 1986
Продолжительность: 01:13:58
Режиссёр: Йозеф ПинкаваВ ролях: Яна Паленичкова, Антон Самулеев, Вадим Хрычкин, Наталья Варлей, Евгений Герасимов, Эва Якоубкова, Милослав Мейзлик, Любомир Липский, Раиса Рязанова, Наталья Дурова
Описание: По мотивам произведений Наталии Дуровой. Приключения двух московских мальчишек, приехавшей к ним в гости из Чехословакии девочки и их четвероногих питомцев — Риты и Маркиза.
Доп. информация:
Заранее прошу прощения за качество картинки. Писал с НТВ-Плюс, но качество трансляции канала там не очень. В любом случае, качество картинки здесь несколько лучше, чем в (сравнение скриншотов).
Семпл: http://multi-up.com/576234
Качество видео: SATRip
Формат видео: AVI
Видео: Xvid 640x480 25.00fps 1532 Kbps
Аудио: MPEG Audio Layer 3 48000Hz stereo 192kbps


Complete name : G:\Мои раздачи\Postoronnim.Vhod.Razreshen.SATRip.avi
Format : AVI
Format/Info : Audio Video Interleave
File size : 918 MiB
Duration : 1h 13mn
Overall bit rate : 1 734 Kbps
Writing library : VirtualDub build 29808/release
ID : 0
Format : MPEG-4 Visual
Format profile : Advanced Simple@L5
Format settings, BVOP : Yes
Format settings, QPel : No
Format settings, GMC : No warppoints
Format settings, Matrix : Default (H.263)
Muxing mode : Packed bitstream
Codec ID : XVID
Codec ID/Hint : XviD
Duration : 1h 13mn
Bit rate : 1 532 Kbps
Width : 640 pixels
Height : 480 pixels
Display aspect ratio : 4:3
Frame rate : 25.000 fps
Color space : YUV
Chroma subsampling : 4:2:0
Bit depth : 8 bits
Scan type : Progressive
Compression mode : Lossy
Bits/(Pixel*Frame) : 0.200
Stream size : 811 MiB (88%)
Writing library : XviD 1.0.3 (UTC 2004-12-20)
ID : 1
Format : MPEG Audio
Format version : Version 1
Format profile : Layer 3
Mode : Joint stereo
Codec ID : 55
Codec ID/Hint : MP3
Duration : 1h 13mn
Bit rate mode : Constant
Bit rate : 192 Kbps
Channel(s) : 2 channels
Sampling rate : 48.0 KHz
Compression mode : Lossy
Stream size : 102 MiB (11%)
Alignment : Split accross interleaves
Interleave, duration : 40 ms (1.00 video frame)
Interleave, preload duration : 500 ms

Скриншот c названием фильма



Display posts:    

Current time is: 25-Oct 09:47

All times are UTC + 3

You cannot post new topics in this forum
You cannot reply to topics in this forum
You cannot edit your posts in this forum
You cannot delete your posts in this forum
You cannot vote in polls in this forum
You cannot attach files in this forum
You cannot download files in this forum

The site does not give electronic versions of products, and is engaged only in a collecting and cataloguing of the references sent and published at a forum by our readers. If you are the legal owner of any submitted material and do not wish that the reference to it was in our catalogue, contact us and we shall immediately remove her. Files for an exchange on tracker are given by users of a site, and the administration does not bear the responsibility for their maintenance. The request to not fill in the files protected by copyrights, and also files of the illegal maintenance!