[ Сегодня идет свободное скачивание без начисления Download ]


Статистика раздачи
Нет
 
   
 
Top  
 
 
Посторонним вход разрешен
Жанр: детский, приключения, семейный
Год выпуска: 1986
Продолжительность: 01:13:58
Режиссёр: Йозеф ПинкаваВ ролях: Яна Паленичкова, Антон Самулеев, Вадим Хрычкин, Наталья Варлей, Евгений Герасимов, Эва Якоубкова, Милослав Мейзлик, Любомир Липский, Раиса Рязанова, Наталья Дурова
Описание: По мотивам произведений Наталии Дуровой. Приключения двух московских мальчишек, приехавшей к ним в гости из Чехословакии девочки и их четвероногих питомцев — Риты и Маркиза.
Доп. информация:
Заранее прошу прощения за качество картинки. Писал с НТВ-Плюс, но качество трансляции канала там не очень. В любом случае, качество картинки здесь несколько лучше, чем в (сравнение скриншотов).
Семпл: http://multi-up.com/576234
Качество видео: SATRip
Формат видео: AVI
Видео: Xvid 640x480 25.00fps 1532 Kbps
Аудио: MPEG Audio Layer 3 48000Hz stereo 192kbps

MediaInfo

General
Complete name : G:\Мои раздачи\Postoronnim.Vhod.Razreshen.SATRip.avi
Format : AVI
Format/Info : Audio Video Interleave
File size : 918 MiB
Duration : 1h 13mn
Overall bit rate : 1 734 Kbps
Writing library : VirtualDub build 29808/release
Video
ID : 0
Format : MPEG-4 Visual
Format profile : Advanced [email protected]
Format settings, BVOP : Yes
Format settings, QPel : No
Format settings, GMC : No warppoints
Format settings, Matrix : Default (H.263)
Muxing mode : Packed bitstream
Codec ID : XVID
Codec ID/Hint : XviD
Duration : 1h 13mn
Bit rate : 1 532 Kbps
Width : 640 pixels
Height : 480 pixels
Display aspect ratio : 4:3
Frame rate : 25.000 fps
Color space : YUV
Chroma subsampling : 4:2:0
Bit depth : 8 bits
Scan type : Progressive
Compression mode : Lossy
Bits/(Pixel*Frame) : 0.200
Stream size : 811 MiB (88%)
Writing library : XviD 1.0.3 (UTC 2004-12-20)
Audio
ID : 1
Format : MPEG Audio
Format version : Version 1
Format profile : Layer 3
Mode : Joint stereo
Codec ID : 55
Codec ID/Hint : MP3
Duration : 1h 13mn
Bit rate mode : Constant
Bit rate : 192 Kbps
Channel(s) : 2 channels
Sampling rate : 48.0 KHz
Compression mode : Lossy
Stream size : 102 MiB (11%)
Alignment : Split accross interleaves
Interleave, duration : 40 ms (1.00 video frame)
Interleave, preload duration : 500 ms

Скриншот c названием фильма

Скриншоты

[Цитировать]



Показать сообщения:    

Текущее время: 05-Дек 13:35

Часовой пояс: UTC + 3


Вы не можете начинать темы
Вы не можете отвечать на сообщения
Вы не можете редактировать свои сообщения
Вы не можете удалять свои сообщения
Вы не можете голосовать в опросах
Вы не можете прикреплять файлы к сообщениям
Вы не можете скачивать файлы

!ВНИМАНИЕ!
Сайт не предоставляет электронные версии произведений, а занимается лишь коллекционированием и каталогизацией ссылок, присылаемых и публикуемых на форуме нашими читателями. Если вы являетесь правообладателем какого-либо представленного материала и не желаете, чтобы ссылка на него находилась в нашем каталоге, свяжитесь с нами, и мы незамедлительно удалим ее. Файлы для обмена на трекере предоставлены пользователями сайта, и администрация не несет ответственности за их содержание. Просьба не заливать файлы, защищенные авторскими правами, а также файлы нелегального содержания!