[ Сегодня идет свободное скачивание без начисления Download ]


Статистика раздачи
Нет
 
   
 
Top  
 
 
Свистун
Жанр: Приключения, криминал, детский
Год выпуска: 1993
Продолжительность: 01:18:54
Режиссёр: Пал Эрдёшш
В ролях: Нина Агапова, Питер Ост, Екатерина Федулова, Мухмед Хазал, Владимир Ильин, Павел Комаров, Пол Лейзенби, Даниил Лебедев, Любовь Матюшина
Описание: История приключений двенадцатилетнего мальчика из семьи турецких эмигрантов, живущих в Германии. Став случайным свидетелем ограбления квартиры, герой попадает под подозрение. И тогда на помощь ему приходят школьные друзья, которые находят настоящих преступников и помогают полиции их арестовать...
Доп. информация: Релиз Кинозал.ТВ
Семпл: http://multi-up.com/558026
Качество видео: DVDRip
Формат видео: AVI
Видео: XviD build 50, 688x512 (1.34:1), 25 fps, 1769 kbps avg
Аудио: AC3 Dolby Digital, 48 kHz, 2/0 (L,R) ch, 192.00 kbps avg

MediaInfo

General
Complete name : D:\Раздачи\Svistun.1993.XviD.DVDRip-Kinozal.TV.avi
Format : AVI
Format/Info : Audio Video Interleave
File size : 1.09 GiB
Duration : 1h 18mn
Overall bit rate : 1 971 Kbps
Writing application : VirtualDubMod 1.5.10.2 (build 2540/release)
Writing library : VirtualDubMod build 2540/release
Video
ID : 0
Format : MPEG-4 Visual
Format profile : [email protected]
Format settings, BVOP : Yes
Format settings, QPel : No
Format settings, GMC : No warppoints
Format settings, Matrix : Default (MPEG)
Codec ID : XVID
Codec ID/Hint : XviD
Duration : 1h 18mn
Bit rate : 1 770 Kbps
Width : 688 pixels
Height : 512 pixels
Display aspect ratio : 4/3
Frame rate : 25.000 fps
Resolution : 24 bits
Colorimetry : 4:2:0
Scan type : Progressive
Bits/(Pixel*Frame) : 0.201
Stream size : 999 MiB (90%)
Writing library : XviD 1.2.1 (UTC 2008-12-04)
Audio
ID : 1
Format : AC-3
Format/Info : Audio Coding 3
Codec ID : 2000
Duration : 1h 18mn
Bit rate mode : Constant
Bit rate : 192 Kbps
Channel(s) : 2 channels
Channel positions : L R
Sampling rate : 48.0 KHz
Stream size : 108 MiB (10%)
Alignment : Split accross interleaves
Interleave, duration : 40 ms (1.00 video frame)
Interleave, preload duration : 500 ms

Скриншоты

[Цитировать]



Показать сообщения:    

Текущее время: 05-Дек 01:28

Часовой пояс: UTC + 3


Вы не можете начинать темы
Вы не можете отвечать на сообщения
Вы не можете редактировать свои сообщения
Вы не можете удалять свои сообщения
Вы не можете голосовать в опросах
Вы не можете прикреплять файлы к сообщениям
Вы не можете скачивать файлы

!ВНИМАНИЕ!
Сайт не предоставляет электронные версии произведений, а занимается лишь коллекционированием и каталогизацией ссылок, присылаемых и публикуемых на форуме нашими читателями. Если вы являетесь правообладателем какого-либо представленного материала и не желаете, чтобы ссылка на него находилась в нашем каталоге, свяжитесь с нами, и мы незамедлительно удалим ее. Файлы для обмена на трекере предоставлены пользователями сайта, и администрация не несет ответственности за их содержание. Просьба не заливать файлы, защищенные авторскими правами, а также файлы нелегального содержания!