[ Сегодня идет свободное скачивание без начисления Download ]


Статистика раздачи
Нет
 
   
 
Top  
 
 
Всадник над городом
Жанр: детский, семейный
Год выпуска: 1966
Продолжительность: 01:07:32
Режиссёр: Игорь Шатров
В ролях: Валя Щеглова, Миша Макаров, Иван Лапиков, Евгений Евстигнеев, Лена Мартынова, Сережа Богачев, Витя Сурков, Рома Мякотин, Надежда Самсонова, А. Александрова, Зинаида Воркуль, Ксения Козьмина, Константин Титов, Дмитрий Масанов, Владимир Глухов, Александр Метелкин
Описание: Школьник Кира имеет только один недостаток — он носит очки. Поэтому, когда мальчик встречает свою одноклассницу Айну, прячет их в карман и на ее лукавый вопрос всякий раз утверждает, что забыл очки дома. А между тем мама Киры считает, что его недостаток лишь в том, что он всегда говорит то, что думает. Впрочем, их точки зрения не совсем расходятся. Однажды у Кирилла появится настоящий друг — старый часовщик, участник Великой Отечественной войны. Мальчик удивится и обрадуется, когда узнает, что Айна — его внучка.
Доп. информация:
Сценарист: Юрий Яковлев
Операторы: Петр Катаев, Христофор Триандафилов
Композитор: Алексей Рыбников
Производство: Киностудия им. Горького
Премьера: 17 января 1967


TVRip в AVI
Качество видео: TVRip
Формат видео: MPEG2
Видео: MPEG2 Video 720x576 (4:3) 25.00fps 5744 Кбит/сек
Аудио: MPEG Audio 48000Hz stereo192kbps

MediaInfo

Общее
Полное имя : D:\TORENT4\VSADNIK.NAD.GORODOM.1966.mpg
Формат : MPEG-PS
Размер файла : 2,86 Гбайт
Продолжительность : 1 ч. 7 м.
Общий поток : 6056 Кбит/сек
Видео
Идентификатор : 224 (0xE0)
Формат : MPEG Video
Версия формата : Version 2
Профиль формата : [email protected]
Параметр BVOP формата : Да
Параметр матрицы формата : По умолчанию
Продолжительность : 1 ч. 7 м.
Вид битрейта : Переменный
Битрейт : 5744 Кбит/сек
Номинальный битрейт : 9282 Кбит/сек
Ширина : 720 пикс.
Высота : 576 пикс.
Соотношение сторон : 4:3
Частота кадров : 25,000 кадр/сек
Стандарт вещания : PAL
Цветовое пространство : YUV
Подвыборка цветности : 4:2:0
Битовая глубина : 8 бит
Тип развёртки : Чересстрочная
Порядок развёртки : Верхнее поле первое
Метод сжатия : С потерями
Бит/(Пиксели*Кадры) : 0.554
Размер потока : 2,71 Гбайт (95%)
Аудио
Идентификатор : 192 (0xC0)
Формат : MPEG Audio
Версия формата : Version 1
Профиль формата : Layer 2
Продолжительность : 1 ч. 7 м.
Вид битрейта : Постоянный
Битрейт : 192 Кбит/сек
Каналы : 2 канала
Частота : 48,0 КГц
Метод сжатия : С потерями
Размер потока : 92,8 Мбайт (3%)

Скриншоты

[Цитировать]



Показать сообщения:    

Текущее время: 05-Дек 01:30

Часовой пояс: UTC + 3


Вы не можете начинать темы
Вы не можете отвечать на сообщения
Вы не можете редактировать свои сообщения
Вы не можете удалять свои сообщения
Вы не можете голосовать в опросах
Вы не можете прикреплять файлы к сообщениям
Вы не можете скачивать файлы

!ВНИМАНИЕ!
Сайт не предоставляет электронные версии произведений, а занимается лишь коллекционированием и каталогизацией ссылок, присылаемых и публикуемых на форуме нашими читателями. Если вы являетесь правообладателем какого-либо представленного материала и не желаете, чтобы ссылка на него находилась в нашем каталоге, свяжитесь с нами, и мы незамедлительно удалим ее. Файлы для обмена на трекере предоставлены пользователями сайта, и администрация не несет ответственности за их содержание. Просьба не заливать файлы, защищенные авторскими правами, а также файлы нелегального содержания!