[ Сегодня идет свободное скачивание без начисления Download ]


Статистика раздачи
Нет
 
   
 
Top  
 
 
Витя Глушаков - друг апачей--Год выпуска: 1983--Жанр: комедия, детский
Продолжительность: 01:11:37--Режиссер: Геральд Бежанов
Сценарий: Геральд Бежанов, Анатолий Эйрамджан
Оператор: Сергей Зайцев
Композитор: Владимир Рубашевский--В ролях: Леонид Куравлёв (дядя Аркадий), Андрей Юрицин (Витя Глушаков), Екатерина Симонова (Нина Скворцова), Владимир Лизунов (Петька Томилин), Роман Долгов (Коля Захаров), Игорь Ясулович (отец Вити), Евгения Сабельникова (мама Вити), Галина Польских (Клавдия Матвеевна), Михаил Кокшенов (отец Томилина), Анна Варпаховская, Дмитрий Жучков (Игнат Медведев), Любовь Соколова (тётка в очереди)--Описание: Отличник и фантазер Витя, пишущий роман из жизни апачей, и неистощимый на выдумки дядя Аркадий, завсегдатай винных магазинов, случайно познакомились в трамвае и сразу осознали необходимость друг в друге. Жизнь дяди Аркаши обрела смысл, и он даже устроился на работу.--Кинопоиск--Рип совместим с большинством бытовых DVD - проигрывателей.--Качество: SATRip Исходник:
Формат: AVI
Видео кодек: XviD
Аудио кодек: MP3
Видео: XviD; 688x336 (2.048); 1302 Kbps; 25 fps; 0,225 bpp
Аудио: Undefined; MPEG-1 Audio layer 3; 128 Kbps; CBR; 2 ch-
-

Скриншоты

Mediainfo

General
Complete name :...\Vitya_Glushakov_drug_apachey_(1983).SATRip.XviD.mp3_[All.Films][RG].avi
Format : AVI
Format/Info : Audio Video Interleave
File size : 738 MiB
Duration : 1h 11mn
Overall bit rate : 1 441 Kbps
Movie name : Витя Глушаков - друг апачей (1983) SATRip [All.Films][RG]
Director : <VIRUS> [rutracker.org]
Writing application : VirtualDubMod 1.5.10.3 | www.virtualdub-fr.org || (build 2550/release) VirtualDubMod build 2550/release
Video
ID : 0
Format : MPEG-4 Visual
Format profile : Advanced [email protected]
Format settings, BVOP : 2
Format settings, QPel : No
Format settings, GMC : No warppoints
Format settings, Matrix : Custom
Codec ID : XVID
Codec ID/Hint : XviD
Duration : 1h 11mn
Bit rate : 1 303 Kbps
Width : 688 pixels
Height : 336 pixels
Display aspect ratio : 2.048
Frame rate : 25.000 fps
Color space : YUV
Chroma subsampling : 4:2:0
Bit depth : 8 bits
Scan type : Progressive
Compression mode : Lossy
Bits/(Pixel*Frame) : 0.225
Stream size : 667 MiB (90%)
Writing library : XviD 64
Audio
ID : 1
Format : MPEG Audio
Format version : Version 1
Format profile : Layer 3
Codec ID : 55
Codec ID/Hint : MP3
Duration : 1h 11mn
Bit rate mode : Constant
Bit rate : 128 Kbps
Channel(s) : 2 channels
Sampling rate : 48.0 KHz
Compression mode : Lossy
Stream size : 65.6 MiB (9%)
Alignment : Aligned on interleaves
Interleave, duration : 40 ms (1.00 video frame)
Interleave, preload duration : 504 ms
Writing library : LAME3.98r
Encoding settings : -m s -V 4 -q 2 -lowpass 17 -b 128
Language : un

Сравнение

- апскейл, заниженный битрей аудио.

[Цитировать]



Показать сообщения:    

Текущее время: 05-Дек 17:40

Часовой пояс: UTC + 3


Вы не можете начинать темы
Вы не можете отвечать на сообщения
Вы не можете редактировать свои сообщения
Вы не можете удалять свои сообщения
Вы не можете голосовать в опросах
Вы не можете прикреплять файлы к сообщениям
Вы не можете скачивать файлы

!ВНИМАНИЕ!
Сайт не предоставляет электронные версии произведений, а занимается лишь коллекционированием и каталогизацией ссылок, присылаемых и публикуемых на форуме нашими читателями. Если вы являетесь правообладателем какого-либо представленного материала и не желаете, чтобы ссылка на него находилась в нашем каталоге, свяжитесь с нами, и мы незамедлительно удалим ее. Файлы для обмена на трекере предоставлены пользователями сайта, и администрация не несет ответственности за их содержание. Просьба не заливать файлы, защищенные авторскими правами, а также файлы нелегального содержания!