[ Today is free to download without increasing Download ]

DL-List and Torrent activity
Последнее лето детства
Жанр: Приключения, детский
Год выпуска: 1974
Продолжительность: 3 х 01:09:00
Режиссёр: Валерий Рубинчик
В ролях: Владимир Антоник, Евгений Евстигнеев, Вячеслав Молоков, Сергей Беляк, Александр Катько, Олег Грачев, Людмила Куцелай, Александр Жданов, Леонид Белозорович, Николай Денисов, Владимир Лосев, Александр Вокач, Зоя Осмоловская, Ирина Борисова, Владимир Герасимов, Юрий Сидоров, Вадим Ганшин, Геннадий Овсянников, Виктор Лебедев, Вера Кавалерова, Анатолий Чарноцкий, Георгий Штиль, Валентина Ананьина, Рогволд Суховерко
Описание: Действие происходит в Москве в 1927 году во времена нэпа. Трое главных героев Миша, Генка и Слава выросли и стали комсомольцами. Они участвуют в разоблачении банды, которая занималась хищениями мануфактуры, и спасают нескольких беспризорников от вовлечения в преступную деятельность.
Семпл: http://multi-up.com/577640
Качество видео: DVDRip (DVD-9)
Формат видео: AVI
Видео: 688x512 (1.34:1), 25 fps, XviD build 50 ~1521 kbps avg, 0.17 bit/pixel
Аудио: 48 kHz, AC3 Dolby Digital, 2/0 (L,R) ch, ~224 kbps


Complete name : D:\Torrent\Rip\Kortik_Bronzovaya.Ptica_Poslednee.leto.detstva_1973.1974.XviD.DVDRip.Kinozal.TV\3.Poslednee.leto.detstva.(01.serii.is.3).1974.XviD.DVDRip.Kinozal.TV.avi
Format : AVI
Format/Info : Audio Video Interleave
File size : 806 MiB
Duration : 1h 4mn
Overall bit rate : 1 755 Kbps
Writing application : VirtualDubMod (build 2540/release)
Writing library : VirtualDubMod build 2540/release
ID : 0
Format : MPEG-4 Visual
Format profile : Advanced Simple@L5
Format settings, BVOP : 4
Format settings, QPel : No
Format settings, GMC : No warppoints
Format settings, Matrix : Custom
Codec ID : XVID
Codec ID/Hint : XviD
Duration : 1h 4mn
Bit rate : 1 522 Kbps
Width : 688 pixels
Height : 512 pixels
Display aspect ratio : 4:3
Frame rate : 25.000 fps
Color space : YUV
Chroma subsampling : 4:2:0
Bit depth : 8 bits
Scan type : Progressive
Compression mode : Lossy
Bits/(Pixel*Frame) : 0.173
Stream size : 699 MiB (87%)
Writing library : XviD 1.2.1 (UTC 2008-12-04)
ID : 1
Format : AC-3
Format/Info : Audio Coding 3
Mode extension : CM (complete main)
Codec ID : 2000
Duration : 1h 4mn
Bit rate mode : Constant
Bit rate : 224 Kbps
Channel(s) : 2 channels
Channel positions : Front: L R
Sampling rate : 48.0 KHz
Bit depth : 16 bits
Compression mode : Lossy
Stream size : 103 MiB (13%)
Alignment : Split accross interleaves
Interleave, duration : 40 ms (1.00 video frame)
Interleave, preload duration : 500 ms



Display posts:    

Current time is: 26-Oct 12:20

All times are UTC + 3

You cannot post new topics in this forum
You cannot reply to topics in this forum
You cannot edit your posts in this forum
You cannot delete your posts in this forum
You cannot vote in polls in this forum
You cannot attach files in this forum
You cannot download files in this forum

The site does not give electronic versions of products, and is engaged only in a collecting and cataloguing of the references sent and published at a forum by our readers. If you are the legal owner of any submitted material and do not wish that the reference to it was in our catalogue, contact us and we shall immediately remove her. Files for an exchange on tracker are given by users of a site, and the administration does not bear the responsibility for their maintenance. The request to not fill in the files protected by copyrights, and also files of the illegal maintenance!