[ Сегодня идет свободное скачивание без начисления Download ]


Статистика раздачи
Нет
 
   
 
Top  
 
 
Кортик
Жанр: Приключения, детский
Год выпуска: 1973
Продолжительность: 3 х 01:09:00
Режиссёр: Николай Калинин
В ролях: Сергей Шевкуненко Владимир Дичковский Зоя Фёдорова Эммануил Виторган Виктор Сергачев Наталья Чемодурова Михаил Голубович Эдуард Горячий Гедиминас Карка Леонид Кмит, Татьяна Кудрявцева, Кузьма Кулаков, Витаутас Томкус, Роман Филиппов, Виталий Быков, Борис Владомирский, Тамара Трушина, Игорь Шульженко, Юрий Сидоров, Вера Кузнецова, Эмилия Мильтон, Ростислав Янковский, Андрей Войновский, Павел Кормунин, Александр Примако, Марина Бойцова, Светлана Турова, Сергей Полежаев, Анатолий Дашкевич, Владимир Папкович, Саша Мазалов, Светлана Потапчик, Галина Рогачева, Наташа Гайдукова, Михаил Залетов, Гриша Черняков
Описание: Детский приключенческий телефильм по одноименному роману Анатолия Рыбакова. Пионеры 20-х годов пытаются раскрыть тайну морского кортика, хранящего шифрованное послание. Но при этом им приходится то и дело вступать в противостояние с бандитами…
Семпл: http://multi-up.com/577316
Качество видео: DVDRip (DVD-9)
Формат видео: AVI
Видео: 688x448 (1.54:1), 23.976 fps, XviD build 50 ~1287 kbps avg, 0.17 bit/pixel
Аудио: 48 kHz, AC3 Dolby Digital, 2/0 (L,R) ch, ~224 kbps

MediaInfo

General
Complete name : D:\Torrent\Rip\Kortik_Bronzovaya.Ptica_Poslednee.leto.detstva_1973.1974.XviD.DVDRip.Kinozal.TV\1.Kortik.(01.seriya.iz.3).1973.XviD.DVDRip.Kinozal.TV.avi
Format : AVI
Format/Info : Audio Video Interleave
File size : 745 MiB
Duration : 1h 8mn
Overall bit rate : 1 521 Kbps
Writing application : VirtualDubMod 1.5.10.3 | www.virtualdub-fr.org || (build 2550/release)
Writing library : VirtualDubMod build 2550/release
Video
ID : 0
Format : MPEG-4 Visual
Format profile : Advanced Simple@L5
Format settings, BVOP : 2
Format settings, QPel : No
Format settings, GMC : No warppoints
Format settings, Matrix : Custom
Codec ID : XVID
Codec ID/Hint : XviD
Duration : 1h 8mn
Bit rate : 1 288 Kbps
Width : 688 pixels
Height : 448 pixels
Display aspect ratio : 3:2
Frame rate : 23.976 fps
Color space : YUV
Chroma subsampling : 4:2:0
Bit depth : 8 bits
Scan type : Progressive
Compression mode : Lossy
Bits/(Pixel*Frame) : 0.174
Stream size : 631 MiB (85%)
Writing library : XviD 1.2.1 (UTC 2008-12-04)
Audio
ID : 1
Format : AC-3
Format/Info : Audio Coding 3
Mode extension : CM (complete main)
Codec ID : 2000
Duration : 1h 8mn
Bit rate mode : Constant
Bit rate : 224 Kbps
Channel(s) : 2 channels
Channel positions : Front: L R
Sampling rate : 48.0 KHz
Bit depth : 16 bits
Compression mode : Lossy
Stream size : 110 MiB (15%)
Alignment : Split accross interleaves
Interleave, duration : 42 ms (1.00 video frame)
Interleave, preload duration : 500 ms

Скриншоты

[Цитировать]



Показать сообщения:    

Текущее время: 10-Дек 11:59

Часовой пояс: UTC + 3


Вы не можете начинать темы
Вы не можете отвечать на сообщения
Вы не можете редактировать свои сообщения
Вы не можете удалять свои сообщения
Вы не можете голосовать в опросах
Вы не можете прикреплять файлы к сообщениям
Вы не можете скачивать файлы

!ВНИМАНИЕ!
Сайт не предоставляет электронные версии произведений, а занимается лишь коллекционированием и каталогизацией ссылок, присылаемых и публикуемых на форуме нашими читателями. Если вы являетесь правообладателем какого-либо представленного материала и не желаете, чтобы ссылка на него находилась в нашем каталоге, свяжитесь с нами, и мы незамедлительно удалим ее. Файлы для обмена на трекере предоставлены пользователями сайта, и администрация не несет ответственности за их содержание. Просьба не заливать файлы, защищенные авторскими правами, а также файлы нелегального содержания!