[ Сегодня идет свободное скачивание без начисления Download ]


Статистика раздачи
Нет
 
   
 
Top  
 
 
Огненное детство
Жанр: героико-приключенческий
Год выпуска: 1976
Продолжительность: 01:03:15
Режиссёр: Юрий Швырёв
В ролях: Петя Горкин, Алеша Бакинов, Станислав Соколов, Саша Ребеко, Анна Назарьева, Юрий Кузьменков, Даниил Нетребин, Геннадий Юхтин, Алексей Ванин, Юрий Медведев, Евгений Красавцев, Александр Пороховщиков, Станислав Хитров, Евгений Карельских
Описание: По повести Г.Мирошниченко «Юнармия».
1919 год. Маленькая железнодорожная станция на Кубани захвачена белыми, но раненому комиссару Субботину чудом удается спастись. Мальчишки организовывают юнармию и просят комиссара Субботина стать их наставником...
Доп. информация:
Сценарист: Соломон Розен
Оператор: Александр Мачильский
Композитор: Богдан Троцюк
Художник: Анатолий Анфилов
Производство: Киностудия им. Горького
Премьера: февраль 1977


Один банер с названием фильма, после рекламной вставки в раздаче присутствует
Релиз ®
Качество видео: TVRip
Формат видео: MPEG2
Видео: MPEG2 Video 720x576 (4:3) 25.00fps 5973 Кбит/сек
Аудио: MPEG Audio 48000Hz stereo192kbps

MediaInfo

Общее
Полное имя : D:\TORENT4\OGNENNOE.DETSTVO.1976.mpg
Формат : MPEG-PS
Размер файла : 2,78 Гбайт
Продолжительность : 1 ч. 3 м.
Общий поток : 6291 Кбит/сек
Видео
Идентификатор : 224 (0xE0)
Формат : MPEG Video
Версия формата : Version 2
Профиль формата : Main@Main
Параметр BVOP формата : Да
Параметр матрицы формата : По умолчанию
Продолжительность : 1 ч. 3 м.
Вид битрейта : Переменный
Битрейт : 5973 Кбит/сек
Номинальный битрейт : 9282 Кбит/сек
Ширина : 720 пикс.
Высота : 576 пикс.
Соотношение сторон : 4:3
Частота кадров : 25,000 кадр/сек
Стандарт вещания : PAL
Цветовое пространство : YUV
Подвыборка цветности : 4:2:0
Битовая глубина : 8 бит
Тип развёртки : Чересстрочная
Порядок развёртки : Верхнее поле первое
Метод сжатия : С потерями
Бит/(Пиксели*Кадры) : 0.576
Размер потока : 2,64 Гбайт (95%)
Аудио
Идентификатор : 192 (0xC0)
Формат : MPEG Audio
Версия формата : Version 1
Профиль формата : Layer 2
Продолжительность : 1 ч. 3 м.
Вид битрейта : Постоянный
Битрейт : 192 Кбит/сек
Каналы : 2 канала
Частота : 48,0 КГц
Метод сжатия : С потерями
Размер потока : 86,9 Мбайт (3%)

[Цитировать]



Показать сообщения:    

Текущее время: 20-Фев 09:32

Часовой пояс: UTC + 3


Вы не можете начинать темы
Вы не можете отвечать на сообщения
Вы не можете редактировать свои сообщения
Вы не можете удалять свои сообщения
Вы не можете голосовать в опросах
Вы не можете прикреплять файлы к сообщениям
Вы не можете скачивать файлы

!ВНИМАНИЕ!
Сайт не предоставляет электронные версии произведений, а занимается лишь коллекционированием и каталогизацией ссылок, присылаемых и публикуемых на форуме нашими читателями. Если вы являетесь правообладателем какого-либо представленного материала и не желаете, чтобы ссылка на него находилась в нашем каталоге, свяжитесь с нами, и мы незамедлительно удалим ее. Файлы для обмена на трекере предоставлены пользователями сайта, и администрация не несет ответственности за их содержание. Просьба не заливать файлы, защищенные авторскими правами, а также файлы нелегального содержания!