[ Сегодня идет свободное скачивание без начисления Download ]


Статистика раздачи
Нет
 
   
 
Top  
 
 
Если это случится с тобой
Жанр: детский фильм, приключения
Год выпуска: 1973
Продолжительность: 01:04:46
Режиссёр: Игорь Николаев
В ролях: Сергей Образов, Екатерина Малинина, Сережа Комолов, Володя Цветков, Владлен Паулус, Светлана Коновалова, Юрий Дружинин, Эля Молоканова, Саша Буркович, Сережа Григоренко, Алеша Кабанов, Ваня Макушок, Витя Пинский, Алеша Алиев
Описание: Во время похода по местам боевой славы, школьники размышляют, как бы они повели себя, оказавшись на месте солдат Великой Отечественной Войны. И вдруг они в самом деле оказываются в том времени...
Доп. информация:
Сценарист: Вячеслав Наумов
Оператор: Алексей Чардынин
Композитор: Алексей Николаев
Художники: Ольга Беднова, Людмила Безсмертнова
Производство: Киностудия им. Горького
Премьера: 27 августа 1973


TVRip в AVI
Один банер с названием фильма, после рекламной вставки в раздаче присутствует
Качество видео: TVRip
Формат видео: MPEG2
Видео: MPEG2 Video 720x576 (4:3) 25.00fps 5916 Кбит/сек
Аудио: MPEG Audio 48000Hz stereo192kbps

MediaInfo

Общее
Полное имя : D:\TORENT4\ESLI,EhTO.SLUChITSYa.1973.mpg
Формат : MPEG-PS
Размер файла : 2,82 Гбайт
Продолжительность : 1 ч. 4 м.
Общий поток : 6232 Кбит/сек
Видео
Идентификатор : 224 (0xE0)
Формат : MPEG Video
Версия формата : Version 2
Профиль формата : Main@Main
Параметр BVOP формата : Да
Параметр матрицы формата : По умолчанию
Продолжительность : 1 ч. 4 м.
Вид битрейта : Переменный
Битрейт : 5916 Кбит/сек
Номинальный битрейт : 9282 Кбит/сек
Ширина : 720 пикс.
Высота : 576 пикс.
Соотношение сторон : 4:3
Частота кадров : 25,000 кадр/сек
Стандарт вещания : PAL
Цветовое пространство : YUV
Подвыборка цветности : 4:2:0
Битовая глубина : 8 бит
Тип развёртки : Чересстрочная
Порядок развёртки : Верхнее поле первое
Метод сжатия : С потерями
Бит/(Пиксели*Кадры) : 0.571
Размер потока : 2,68 Гбайт (95%)
Аудио
Идентификатор : 192 (0xC0)
Формат : MPEG Audio
Версия формата : Version 1
Профиль формата : Layer 2
Продолжительность : 1 ч. 4 м.
Вид битрейта : Постоянный
Битрейт : 192 Кбит/сек
Каналы : 2 канала
Частота : 48,0 КГц
Метод сжатия : С потерями
Размер потока : 89,0 Мбайт (3%)

Скриншоты

[Цитировать]



Показать сообщения:    

Текущее время: 11-Дек 14:55

Часовой пояс: UTC + 3


Вы не можете начинать темы
Вы не можете отвечать на сообщения
Вы не можете редактировать свои сообщения
Вы не можете удалять свои сообщения
Вы не можете голосовать в опросах
Вы не можете прикреплять файлы к сообщениям
Вы не можете скачивать файлы

!ВНИМАНИЕ!
Сайт не предоставляет электронные версии произведений, а занимается лишь коллекционированием и каталогизацией ссылок, присылаемых и публикуемых на форуме нашими читателями. Если вы являетесь правообладателем какого-либо представленного материала и не желаете, чтобы ссылка на него находилась в нашем каталоге, свяжитесь с нами, и мы незамедлительно удалим ее. Файлы для обмена на трекере предоставлены пользователями сайта, и администрация не несет ответственности за их содержание. Просьба не заливать файлы, защищенные авторскими правами, а также файлы нелегального содержания!