[ Сегодня идет свободное скачивание без начисления Download ]


Статистика раздачи
Нет
 
   
 
Top  
 
 
Засекреченный город
Жанр: приключения, детский
Год выпуска: 1974
Продолжительность: 01:08:03
Режиссёр: Михаил Юзовский
В ролях: Сергей Якунин (II), Андрей Куприянов, Саша Назаров, Эвальдас Микалюнас, Мичислав Юзовский, Игорь Озеров, Марина Дюжева, Тамара Логинова, Оля Шведова, Ирина Нарбекова, Таня Гришина, Володя Коровин, Сережа Цирюльников, Андрюша Галиев, Алексей Смирнов
Описание: По мотивам пьесы Андрея Кучаева "Первая смена".
Действие фильма происходит в пионерском лагере на берегу Чёрного моря. Перед началом традиционной военной игры обнаруживается пропажа пионерского горна. В поиски включается весь пионерский лагерь. И пока ребята ищут пропажу, они ссорятся, мирятся и переживают всевозможные приключения.
Доп. информация:
Сценарист: Андрей Кучаев
Оператор: Виталий Гришин
Композитор: Владимир Дашкевич
Художник: Альфред Таланцев
Производство: Киностудия им.Горького (Ялтинский филиал)
Премьера: 30 декабря 1974


TVRip в AVI
Маленький банеры с названием фильма, после рекламной вставки в раздаче присутствует 1раз
Качество видео: TVRip
Формат видео: MPEG2
Видео: MPEG2 Video 720x576 (4:3) 25.00fps 5866 Кбит/сек
Аудио: MPEG Audio 48000Hz stereo192kbps

MediaInfo

Общее
Полное имя : D:\TORENT4\ZASEKREChENNIhYj.GOROD.1974.mpg
Формат : MPEG-PS
Размер файла : 2,94 Гбайт
Продолжительность : 1 ч. 8 м.
Общий поток : 6181 Кбит/сек
Видео
Идентификатор : 224 (0xE0)
Формат : MPEG Video
Версия формата : Version 2
Профиль формата : [email protected]
Параметр BVOP формата : Да
Параметр матрицы формата : По умолчанию
Продолжительность : 1 ч. 8 м.
Вид битрейта : Переменный
Битрейт : 5866 Кбит/сек
Номинальный битрейт : 9282 Кбит/сек
Ширина : 720 пикс.
Высота : 576 пикс.
Соотношение сторон : 4:3
Частота кадров : 25,000 кадр/сек
Стандарт вещания : PAL
Цветовое пространство : YUV
Подвыборка цветности : 4:2:0
Битовая глубина : 8 бит
Тип развёртки : Чересстрочная
Порядок развёртки : Верхнее поле первое
Метод сжатия : С потерями
Бит/(Пиксели*Кадры) : 0.566
Размер потока : 2,79 Гбайт (95%)
Аудио
Идентификатор : 192 (0xC0)
Формат : MPEG Audio
Версия формата : Version 1
Профиль формата : Layer 2
Продолжительность : 1 ч. 8 м.
Вид битрейта : Постоянный
Битрейт : 192 Кбит/сек
Каналы : 2 канала
Частота : 48,0 КГц
Метод сжатия : С потерями
Размер потока : 93,5 Мбайт (3%)

[Цитировать]



Показать сообщения:    

Текущее время: 06-Дек 19:06

Часовой пояс: UTC + 3


Вы не можете начинать темы
Вы не можете отвечать на сообщения
Вы не можете редактировать свои сообщения
Вы не можете удалять свои сообщения
Вы не можете голосовать в опросах
Вы не можете прикреплять файлы к сообщениям
Вы не можете скачивать файлы

!ВНИМАНИЕ!
Сайт не предоставляет электронные версии произведений, а занимается лишь коллекционированием и каталогизацией ссылок, присылаемых и публикуемых на форуме нашими читателями. Если вы являетесь правообладателем какого-либо представленного материала и не желаете, чтобы ссылка на него находилась в нашем каталоге, свяжитесь с нами, и мы незамедлительно удалим ее. Файлы для обмена на трекере предоставлены пользователями сайта, и администрация не несет ответственности за их содержание. Просьба не заливать файлы, защищенные авторскими правами, а также файлы нелегального содержания!