[ Сегодня идет свободное скачивание без начисления Download ]


Статистика раздачи
Нет
 
   
 
Top  
 
 

-
-Летние впечатления о планете Z--Год выпуска: 1986
Страна: СССР--Жанр: детский, фантастика
Продолжительность: 02:12:41
Перевод: Не требуется--Режиссер: Евгений Марковский
Сценарий: Юрий Томин
Оператор: Константин Ремишевский
Композитор: Игорь Красильников--В ролях: Сергей Шакуров (Мухин Алексей Палыч), Арнас Катинас (Феликс Счастливцев), Гендрюс Пускунидис (Боря Куликов), Евгений Тумилович (маленький Феликс), Николай Марковский (маленький Феликс), Галина Макарова (Мариванна), Дмитрий Матвеев (Васюшкин), Дмитрий Андриевский (Сенька-зараза), Вадим Гемс (Эдуард Михайлович), Александр Бирюков (Куликов), Игорь Тарадайкин (Капустин), Валентин Букин (пожарный инспектор)--Описание: Пришелец из космоса Феликс, мальчик 12 лет, попадает во время летних каникул в детский спортивный лагерь. В летнем спортивном лагере мало кто знал, что мальчик Феликс попал туда не случайно. Что еще несколько дней назад он появился на свет в школьной лаборатории, потому что инопланетный разум прислал на землю разведчика, чтоб изучить землян. В этом ему помогают обыкновенный мальчишка Боря и учитель Алексей Палыч, которые учат Феликса всем обычаям и местным традициям.
Свои впечатления о жизни на Земле он передает в космос. Но все равно порой ребята оказываются на грани разоблачения… Это рассказ о новых друзьях - детях и взрослых, о дружбе, взаимопомощи и смешных недоразумениях, в которые он попадает на незнакомой планете.--КИНОПОИСК-
-
--Рип совместим с большинством бытовых DVD - проигрывателей.--Качество: TVRip ()
Формат: AVI
Видео кодек: XviD
Аудио кодек: AC3
Видео: XviD; 544x400 (4:3); 1034 Kbps; 25 fps; 0,190 bpp
Аудио: MPEG-1 Audio layer 3; 128 Kbps; CBR; 2 ch-

Скриншоты

Mediainfo

General
Complete name : ...\Letnie_vpechatleniya_o_planete_Z_(1986).TVRip.Xvid.mp3_[All.Films][RG].avi
Format : AVI
Format/Info : Audio Video Interleave
File size : 1.09 GiB
Duration : 2h 12mn
Overall bit rate : 1 172 Kbps
Movie name : Летние впечатления о планете Z (1986) TVRip [All.Films][RG]
Director : <VIRUS> [rutracker.org]
Writing application : VirtualDubMod 1.5.10.3 | www.virtualdub-fr.org || (build 2550/release) VirtualDubMod build 2550/release
Video
ID : 0
Format : MPEG-4 Visual
Format profile : Advanced [email protected]
Format settings, BVOP : 2
Format settings, QPel : No
Format settings, GMC : No warppoints
Format settings, Matrix : Custom
Codec ID : XVID
Codec ID/Hint : XviD
Duration : 2h 12mn
Bit rate : 1 034 Kbps
Width : 544 pixels
Height : 400 pixels
Display aspect ratio : 4:3
Frame rate : 25.000 fps
Color space : YUV
Chroma subsampling : 4:2:0
Bit depth : 8 bits
Scan type : Progressive
Compression mode : Lossy
Bits/(Pixel*Frame) : 0.190
Stream size : 982 MiB (88%)
Writing library : XviD 64
Audio
ID : 1
Format : MPEG Audio
Format version : Version 1
Format profile : Layer 3
Codec ID : 55
Codec ID/Hint : MP3
Duration : 2h 12mn
Bit rate mode : Constant
Bit rate : 128 Kbps
Channel(s) : 2 channels
Sampling rate : 48.0 KHz
Compression mode : Lossy
Stream size : 121 MiB (11%)
Alignment : Aligned on interleaves
Interleave, duration : 40 ms (1.00 video frame)
Interleave, preload duration : 504 ms
Writing library : LAME3.99
Encoding settings : -m s -V 4 -q 2 -lowpass 17 -b 128
Language : un
Внимание! 21.11.2011 года торрент файл перезалит, по причине изменения размера раздачи, в соответствии с правилами.

[Цитировать]



Показать сообщения:    

Текущее время: 06-Дек 13:20

Часовой пояс: UTC + 3


Вы не можете начинать темы
Вы не можете отвечать на сообщения
Вы не можете редактировать свои сообщения
Вы не можете удалять свои сообщения
Вы не можете голосовать в опросах
Вы не можете прикреплять файлы к сообщениям
Вы не можете скачивать файлы

!ВНИМАНИЕ!
Сайт не предоставляет электронные версии произведений, а занимается лишь коллекционированием и каталогизацией ссылок, присылаемых и публикуемых на форуме нашими читателями. Если вы являетесь правообладателем какого-либо представленного материала и не желаете, чтобы ссылка на него находилась в нашем каталоге, свяжитесь с нами, и мы незамедлительно удалим ее. Файлы для обмена на трекере предоставлены пользователями сайта, и администрация не несет ответственности за их содержание. Просьба не заливать файлы, защищенные авторскими правами, а также файлы нелегального содержания!