[ Сегодня идет свободное скачивание без начисления Download ]


Статистика раздачи
Нет
 
   
 
Top  
 
 
Новые приключения неуловимых- Жанр: приключения
Год выпуска: 1968
Продолжительность: 01:17:44-Режиссер: Эдмонд Кеосаян
В ролях: Виктор Косых, Михаил Метелкин, Василий Васильев, Армен Джигарханян, Ефим Копелян, Борис Сичкин, Валентина Курдюкова, Юрий Мартынов, Николай Федорцов, Владимир Белокуров, Эдуард Абалов, Ян Френкель, Алексей Бахарь, Владимир Ивашов, Константин Сорокин, Людмила Карауш, Иван Переверзев, Иван Савкин, Аркадий Толбузин, Светлана Светличная, Савелий Крамаров, Сергей Филиппов, Станислав Чекан, Евгений Весник
Описание: Крым накануне полного освобождения от белогвардейцев. Возвращаясь из дозора, четверка отважных "неуловимых" подбивает аэроплан. В полевой сумке взятого в плен летчика они обнаруживают секретное донесение, где говорится о существовании оборонительных укреплений вокруг приморского города, который красным еще предстоит взять. Юные герои получают задание добыть карту укреплений и едут в город.-Доп. информация:
Автор: Zarraza-Качество видео: DVDRip-AVC (источник: DVD-5 / 576p)
Формат видео: MKV
Видео: 704x312 (2.25:1), 25 fps, H264 ~2100 kbps avg
Аудио 1: 48 kHz, AC3 Dolby Digital, 3/2 (L,C,R,l,r) + LFE ch, ~320.00 kbps avg
Аудио 2: 48 kHz, AC3 Dolby Digital, 1/0 (C), ~128.00 kbps avg (Отдельно)-

Скриншоты


-

MInfo

Формат : Matroska
Версия формата : Version 2
Размер файла : 1,31 Гбайт
Продолжительность : 1 ч. 17 м.
Общий поток : 2413 Кбит/сек
Дата кодирования : UTC 2011-10-15 19:26:12
Программа кодирования : mkvmerge v3.4.0 ('Rapunzel') сборка от May 15 2010 09:38:20
Библиотека кодирования : libebml v0.8.0 + libmatroska v0.9.0
Видео
Идентификатор : 1
Формат : AVC
Формат/Информация : Advanced Video Codec
Профиль формата : High@L3.0
Параметр CABAC формата : Да
Параметр ReFrames формата : 6 кадров
Параметр GOP формата : N=1
Идентификатор кодека : V_MPEG4/ISO/AVC
Продолжительность : 1 ч. 17 м.
Битрейт : 2100 Кбит/сек
Ширина : 704 пикселя
Высота : 312 пикселей
Соотношение сторон : 2,25:1
Частота кадров : 25,000 кадров/сек
Цветовое пространство : YUV
Субдискретизация насыщенности : 4:2:0
Битовая глубина : 8 бит
Тип развёртки : Прогрессивная
Бит/(Пиксели*Кадры) : 0.382
Размер потока : 1,11 Гбайт (85%)
Библиотека кодирования : x264 core 75 r1251kMod e553a4c
Настройки программы : cabac=1 / ref=6 / deblock=1:-1:-1 / analyse=0x3:0x133 / me=umh / subme=7 / psy=1 / psy_rd=1.0:0.0 / mixed_ref=1 / me_range=16 / chroma_me=1 / trellis=2 / 8x8dct=1 / cqm=0 / deadzone=21,11 / chroma_qp_offset=-2 / threads=12 / nr=0 / decimate=1 / mbaff=0 / bframes=3 / b_pyramid=0 / b_adapt=2 / b_bias=0 / direct=1 / wpredb=1 / keyint=250 / keyint_min=25 / scenecut=40 / rc_lookahead=40 / rc=abr / mbtree=1 / bitrate=2100 / ratetol=1.0 / qcomp=0.60 / qpmin=10 / qpmax=51 / qpstep=4 / ip_ratio=1.40 / aq=1:1.00
Аудио
Идентификатор : 2
Формат : AC-3
Формат/Информация : Audio Coding 3
Расширение режима : CM (complete main)
Идентификатор кодека : A_AC3
Продолжительность : 1 ч. 17 м.
Вид битрейта : Постоянный
Битрейт : 320 Кбит/сек
Каналы : 6 каналов
Расположение каналов : Front: L C R, Side: L R, LFE
Частота : 48,0 КГц
Битовая глубина : 16 бит
Метод сжатия : С потерями
Размер потока : 178 Мбайт (13%)
-

[Цитировать]



Показать сообщения:    

Текущее время: 07-Дек 23:23

Часовой пояс: UTC + 3


Вы не можете начинать темы
Вы не можете отвечать на сообщения
Вы не можете редактировать свои сообщения
Вы не можете удалять свои сообщения
Вы не можете голосовать в опросах
Вы не можете прикреплять файлы к сообщениям
Вы не можете скачивать файлы

!ВНИМАНИЕ!
Сайт не предоставляет электронные версии произведений, а занимается лишь коллекционированием и каталогизацией ссылок, присылаемых и публикуемых на форуме нашими читателями. Если вы являетесь правообладателем какого-либо представленного материала и не желаете, чтобы ссылка на него находилась в нашем каталоге, свяжитесь с нами, и мы незамедлительно удалим ее. Файлы для обмена на трекере предоставлены пользователями сайта, и администрация не несет ответственности за их содержание. Просьба не заливать файлы, защищенные авторскими правами, а также файлы нелегального содержания!