[ Сегодня идет свободное скачивание без начисления Download ]


Статистика раздачи
Нет
 
   
 
Top  
 
 
Айболит-66
Жанр: музыкальный, комедия
Год выпуска: 1966
Продолжительность: 01:33:37
Режиссёр: Ролан Быков
В ролях: Олег Ефремов, Ролан Быков, Лидия Князева, Евгений Васильев, Фрунзе Мкртчян, Алексей Смирнов, Гурген Джанибекян, Леонид Енгибаров, Фауста Иванова, Зоя Исаева, Людмила Карауш, Виталий Комиссаров, Геннадий Крашенинников, Юрий Мартынов, Раднэр Муратов, Владимир Пицек, Владимир Протасенко, Виктория Радунская, Илья Рутберг, Георгиос Совчис, Виолетта Хуснулова, Светлана Швайко, Игорь Ясулович, Валентин Грачёв, Руслан Ахметов, Борис Веселов, Людмила Марченко, Иван Савкин, Константин Худяков, Геннадий Юдин, Владимир Евстафьев
Описание: Эксцентрическая музыкальная комедия по мотивам известной сказки К.И. Чуковского с элементами цирка и пантомимы, остроумная и изобретательная, о добром докторе Айболите, обезьянке Чичи, собаке Авве, разбойнике Бармалее и его помощниках. Этот яркий остроумный фильм весело и ненавязчиво рассказывает о добре и зле, о справедливости и настоящей дружбе. Рассказывает не только детям, но и взрослым.-Исходник:-Качество видео: DVDRip-AVC
Формат видео: MKV
Видео: x264, 720х438 (2.35:1), 25.0 fps, 1645 kbps
Аудио: AC3, 6 ch, 48 KHz, 448 kbps

MediaInfo

General
Unique ID : 201965484087199416542400624301911594536 (0x97F123299B5A6076A8F740223C8C5628)
Complete name : D:\KINO\Айболит-66 (1966).mkv
Format : Matroska
File size : 1.37 GiB
Duration : 1h 33mn
Overall bit rate : 2 097 Kbps
Encoded date : UTC 2011-12-02 19:43:16
Writing application : mkvmerge v5.0.0 ('Die Wahre Liebe') built on Sep 25 2011 20:33:49
Writing library : libebml v1.2.2 + libmatroska v1.3.0
Attachment : Yes / Yes / Yes
Video
ID : 2
Format : AVC
Format/Info : Advanced Video Codec
Format profile : [email protected]
Format settings, CABAC : Yes
Format settings, ReFrames : 8 frames
Format settings, GOP : M=1, N=25
Codec ID : V_MPEG4/ISO/AVC
Duration : 1h 33mn
Bit rate : 1 645 Kbps
Width : 720 pixels
Height : 438 pixels
Display aspect ratio : 2.35:1
Original display aspect ratio : 1.644
Frame rate : 25.000 fps
Color space : YUV
Chroma subsampling : 4:2:0
Bit depth : 8 bits
Scan type : Progressive
Bits/(Pixel*Frame) : 0.209
Stream size : 1.05 GiB (77%)
Title : Video=)
Writing library : x264 core 116 r2074 2641b9e
Encoding settings : cabac=1 / ref=8 / deblock=1:0:-1 / analyse=0x3:0x133 / me=umh / subme=9 / psy=1 / psy_rd=1.00:0.10 / mixed_ref=1 / me_range=24 / chroma_me=1 / trellis=2 / 8x8dct=1 / cqm=0 / deadzone=21,11 / fast_pskip=1 / chroma_qp_offset=-3 / threads=6 / sliced_threads=0 / nr=0 / decimate=1 / interlaced=0 / bluray_compat=0 / constrained_intra=0 / bframes=4 / b_pyramid=2 / b_adapt=2 / b_bias=0 / direct=3 / weightb=1 / open_gop=0 / weightp=2 / keyint=250 / keyint_min=25 / scenecut=40 / intra_refresh=0 / rc_lookahead=60 / rc=2pass / mbtree=1 / bitrate=1645 / ratetol=1.0 / qcomp=0.60 / qpmin=0 / qpmax=69 / qpstep=4 / cplxblur=20.0 / qblur=0.5 / ip_ratio=1.40 / aq=1:1.00
Language : English
Audio
ID : 1
Format : AC-3
Format/Info : Audio Coding 3
Mode extension : CM (complete main)
Codec ID : A_AC3
Duration : 1h 33mn
Bit rate mode : Constant
Bit rate : 448 Kbps
Channel(s) : 6 channels
Channel positions : Front: L C R, Side: L R, LFE
Sampling rate : 48.0 KHz
Bit depth : 16 bits
Compression mode : Lossy
Delay relative to video : 554ms
Stream size : 300 MiB (21%)
Title : AC3, 6ch, 48KHz, 448kbps
Menu
00:00:00.000 : en:01 Пролог
00:06:57.960 : en:02 Доктор Айболит
00:12:38.760 : en:03 "Скорая помощь"
00:19:46.560 : en:04 Шторм
00:23:56.760 : en:05 Погоня
00:32:36.960 : en:06 Африка
00:37:07.560 : en:07 "Будьте здоровы"
00:41:35.760 : en:08 В обход
00:45:36.360 : en:09 "...пока нам плохо"
00:51:16.560 : en:10 Ослы и болваны
00:56:46.560 : en:11 Бармалей
00:59:26.160 : en:12 Добро и барахло
01:06:22.560 : en:13 Вкусное лекарство
01:16:23.760 : en:14 Ночь
01:25:23.160 : en:15 Обезьяны
01:28:26.160 : en:16 До свидания!

Скриншоты

[Цитировать]



Показать сообщения:    

Текущее время: 06-Дек 17:08

Часовой пояс: UTC + 3


Вы не можете начинать темы
Вы не можете отвечать на сообщения
Вы не можете редактировать свои сообщения
Вы не можете удалять свои сообщения
Вы не можете голосовать в опросах
Вы не можете прикреплять файлы к сообщениям
Вы не можете скачивать файлы

!ВНИМАНИЕ!
Сайт не предоставляет электронные версии произведений, а занимается лишь коллекционированием и каталогизацией ссылок, присылаемых и публикуемых на форуме нашими читателями. Если вы являетесь правообладателем какого-либо представленного материала и не желаете, чтобы ссылка на него находилась в нашем каталоге, свяжитесь с нами, и мы незамедлительно удалим ее. Файлы для обмена на трекере предоставлены пользователями сайта, и администрация не несет ответственности за их содержание. Просьба не заливать файлы, защищенные авторскими правами, а также файлы нелегального содержания!