[ Сегодня идет свободное скачивание без начисления Download ]


Статистика раздачи
Нет
 
   
 
Top  
 
 
Весенняя сказка
Жанр: фильм-сказка
Год выпуска: 1971
Продолжительность: 01:19:05
Режиссёр: Юрий Цветков
В ролях: : Наталья Богунова, Алексей Катышев, Галина Орлова, Евгений Киндинов, Георгий Вицин, Алексей Смирнов, Вера Липсток, Анатолий Обухов, Наталья Кустинская, Жанна Друтская
Описание: Фильм-сказка по мотивам пьесы А. Островского «Снегурочка». Заканчивается празднование Масленицы в Берендеевом царстве. Крестьянина Бобыля ругает жена, Бобылиха, что за гульбой запустил хозяйство, и отправляет в лес за дровами. Бобыль видит Снегурочку, дочь деда Мороза и Весны, которая говорит, что будет дочерью тому, кто первым ее встретил. Молодые берендеи ухаживают за Снегурочкой, но она холодна со всеми, даже с пастухом и музыкантом Лелем, которого определили на постой в избу Бобыля. В деревню приезжает богатый торговец Мизгирь, чтобы «выкупить» свою невесту Купаву, но, увидев Снегурочку, сразу влюбляется в нее, бросает Купаву и клянется, во что бы то ни стало добиться любви Снегурочки...
Исходник:
Сэмпл http://multi-up.com/615559
Качество видео: DVDRip
Формат видео: AVI
Видео: Xvid 688x448 (1.54:1) 25.00fps 2280kbps
Аудио: Dolby AC3 48000Hz stereo 2ch 192kbps

MediaInfo

General
Complete name : C:\Users\samsung\Videos\Весенняя сказка DVDRip (1971).avi
Format : AVI
Format/Info : Audio Video Interleave
File size : 1.37 GiB
Duration : 1h 19mn
Overall bit rate : 2 481 Kbps
Writing application : VirtualDubMod 1.5.10.2 (build 2540/release)
Writing library : VirtualDubMod build 2540/release
Video
ID : 0
Format : MPEG-4 Visual
Format profile : Advanced [email protected]
Format settings, BVOP : Yes
Format settings, QPel : No
Format settings, GMC : No warppoints
Format settings, Matrix : Default (H.263)
Muxing mode : Packed bitstream
Codec ID : XVID
Codec ID/Hint : XviD
Duration : 1h 19mn
Bit rate : 2 280 Kbps
Width : 688 pixels
Height : 448 pixels
Display aspect ratio : 3:2
Frame rate : 25.000 fps
Color space : YUV
Chroma subsampling : 4:2:0
Bit depth : 8 bits
Scan type : Progressive
Bits/(Pixel*Frame) : 0.296
Stream size : 1.26 GiB (92%)
Writing library : XviD 1.2.1 (UTC 2008-12-04)
Audio
ID : 1
Format : AC-3
Format/Info : Audio Coding 3
Mode extension : CM (complete main)
Codec ID : 2000
Duration : 1h 19mn
Bit rate mode : Constant
Bit rate : 192 Kbps
Channel(s) : 2 channels
Channel positions : Front: L R
Sampling rate : 48.0 KHz
Bit depth : 16 bits
Stream size : 109 MiB (8%)
Alignment : Aligned on interleaves
Interleave, duration : 40 ms (1.00 video frame)
Interleave, preload duration : 512 ms
Торент файл перезалит 20.12.11.Переделал рип

[Цитировать]



Показать сообщения:    

Текущее время: 05-Дек 01:33

Часовой пояс: UTC + 3


Вы не можете начинать темы
Вы не можете отвечать на сообщения
Вы не можете редактировать свои сообщения
Вы не можете удалять свои сообщения
Вы не можете голосовать в опросах
Вы не можете прикреплять файлы к сообщениям
Вы не можете скачивать файлы

!ВНИМАНИЕ!
Сайт не предоставляет электронные версии произведений, а занимается лишь коллекционированием и каталогизацией ссылок, присылаемых и публикуемых на форуме нашими читателями. Если вы являетесь правообладателем какого-либо представленного материала и не желаете, чтобы ссылка на него находилась в нашем каталоге, свяжитесь с нами, и мы незамедлительно удалим ее. Файлы для обмена на трекере предоставлены пользователями сайта, и администрация не несет ответственности за их содержание. Просьба не заливать файлы, защищенные авторскими правами, а также файлы нелегального содержания!