[ Сегодня идет свободное скачивание без начисления Download ]


Статистика раздачи
Нет
 
   
 
Top  
 
 
Капитан
Денискины рассказы / Где это видано, где это слыхано

Жанр: детский фильм
Год выпуска: 1973
Продолжительность: 00:27:49
Режиссёр: Аян Шахмалиева
В ролях: Петя Мосеев,Ролан Быков,Алексей Сироткин,Маргарита Сергеечева,Валентина Теличкина,Николай Карамышев,Людмила Ксенофонтова,Кира Крейлис-Петрова,Сергей Полежаев.
Описание: Телефильм. История о том, как герой рассказов Виктора Драгунского - Дениска Кораблев - встречается со своим дядей, капитаном дальнего плавания.
Доп. информация: Одна из 4-х новелл фильма "Денискины рассказы" / "Где это видано, где это слыхано". Исходник взят у tarrac
Качество видео: SATRip
Формат видео: AVI
Видео: XVID 640х480 4:3 25.000 fps Bit rate 1362 Kbps Bits/Pixel 0.177
Аудио: MPEG Audio Layer 3 48000Hz stereo 128Kbps

MediaInfo

General
Complete name : C:\_КАПИТАН - 1973_.avi
Format : AVI
Format/Info : Audio Video Interleave
File size : 299 MiB
Duration : 27mn 49s
Overall bit rate : 1 500 Kbps
Writing application : VirtualDubMod 1.5.10.2 (build 2540/release)
Writing library : VirtualDubMod build 2540/release
Video
ID : 0
Format : MPEG-4 Visual
Format profile : Advanced [email protected]
Format settings, BVOP : Yes
Format settings, QPel : No
Format settings, GMC : No warppoints
Format settings, Matrix : Default (H.263)
Codec ID : XVID
Codec ID/Hint : XviD
Duration : 27mn 49s
Bit rate : 1 362 Kbps
Width : 640 pixels
Height : 480 pixels
Display aspect ratio : 4:3
Frame rate : 25.000 fps
Resolution : 8 bits
Colorimetry : 4:2:0
Scan type : Progressive
Bits/(Pixel*Frame) : 0.177
Stream size : 271 MiB (91%)
Writing library : XviD 1.2.1 (UTC 2008-12-04)
Audio
ID : 1
Format : MPEG Audio
Format version : Version 1
Format profile : Layer 3
Codec ID : 55
Codec ID/Hint : MP3
Duration : 27mn 49s
Bit rate mode : Constant
Bit rate : 128 Kbps
Channel(s) : 2 channels
Sampling rate : 48.0 KHz
Stream size : 25.5 MiB (9%)
Alignment : Aligned on interleaves
Interleave, duration : 40 ms (1.00 video frame)
Interleave, preload duration : 504 ms
Writing library : LAME3.98r
Encoding settings : -m s -V 4 -q 2 -lowpass 17 -b 128

Скриншот c названием фильма

Скриншоты

[Цитировать]



Показать сообщения:    

Текущее время: 04-Дек 09:15

Часовой пояс: UTC + 3


Вы не можете начинать темы
Вы не можете отвечать на сообщения
Вы не можете редактировать свои сообщения
Вы не можете удалять свои сообщения
Вы не можете голосовать в опросах
Вы не можете прикреплять файлы к сообщениям
Вы не можете скачивать файлы

!ВНИМАНИЕ!
Сайт не предоставляет электронные версии произведений, а занимается лишь коллекционированием и каталогизацией ссылок, присылаемых и публикуемых на форуме нашими читателями. Если вы являетесь правообладателем какого-либо представленного материала и не желаете, чтобы ссылка на него находилась в нашем каталоге, свяжитесь с нами, и мы незамедлительно удалим ее. Файлы для обмена на трекере предоставлены пользователями сайта, и администрация не несет ответственности за их содержание. Просьба не заливать файлы, защищенные авторскими правами, а также файлы нелегального содержания!