[ Сегодня идет свободное скачивание без начисления Download ]


Статистика раздачи
Нет
 
   
 
Top  
 
 
Сказание о храбром витязе Фэт-Фрумосе
Жанр: сказка, детский
Год выпуска: 1977
Продолжительность: 01:03:12+ 01:03:22 (2 серии)
Режиссёр: Влад Иовицэ, Николай Есиненку
В ролях: Владимир Антоник, Броне Брашките, Петр (Петря) Баракчи, Василе Зубку, Евгения Тодорашко, Констанца Тырцэу, Ион Унгуряну, Василе Тэбырцэ, Михай Волонтир
Описание: По мотивам молдавских и румынских народных сказок. В селе рождается мальчик, который растет не по дням, а по часам. Это богатырь Фэт-Фрумос. Три раза он слышит человеческий крик и не может не поспешить на помощь. Многое придется ему пережить в царстве злодея Лаура-Балаура, прежде чем добро победит зло.
Доп. информация: Производство: Молдова-фильм
Примечание: Оба файла раздачи фильма идентичны по техническим данным.
Сэмплhttp://multi-up.com/655262
Качество видео: DVDRip
Формат видео: AVI
Видео: Xvid 704x528 (1.33:1) 25.00fps 2270kbps
Аудио: Dolby AC3 48000Hz stereo 2 ch 192kbps

MediaInfo

General
Complete name : C:\Users\samsung\Videos\1.Сказание о храбром витязе Фет-Фрумосе 1977.avi
Format : AVI
Format/Info : Audio Video Interleave
File size : 1.09 GiB
Duration : 1h 3mn
Overall bit rate : 2 472 Kbps
Writing application : VirtualDubModRus 1.5.10.2 (build 2540/release)
Writing library : VirtualDubMod build 2540/release
Video
ID : 0
Format : MPEG-4 Visual
Format profile : Advanced Simple@L5
Format settings, BVOP : Yes
Format settings, QPel : No
Format settings, GMC : No warppoints
Format settings, Matrix : Default (H.263)
Codec ID : XVID
Codec ID/Hint : XviD
Duration : 1h 3mn
Bit rate : 2 270 Kbps
Width : 704 pixels
Height : 528 pixels
Display aspect ratio : 4:3
Frame rate : 25.000 fps
Color space : YUV
Chroma subsampling : 4:2:0
Bit depth : 8 bits
Scan type : Progressive
Bits/(Pixel*Frame) : 0.244
Stream size : 1.00 GiB (92%)
Writing library : XviD 1.2.1 (UTC 2008-12-04)
Audio
ID : 1
Format : AC-3
Format/Info : Audio Coding 3
Mode extension : CM (complete main)
Codec ID : 2000
Duration : 1h 3mn
Bit rate mode : Constant
Bit rate : 192 Kbps
Channel(s) : 2 channels
Channel positions : Front: L R
Sampling rate : 48.0 KHz
Bit depth : 16 bits
Stream size : 86.8 MiB (8%)
Alignment : Split accross interleaves
Interleave, duration : 40 ms (1.00 video frame)
Interleave, preload duration : 500 ms
General
Complete name : C:\Users\samsung\Videos\2.Сказание о храбром витязе Фет-Фрумосе 1977.avi
Format : AVI
Format/Info : Audio Video Interleave
File size : 1.09 GiB
Duration : 1h 3mn
Overall bit rate : 2 472 Kbps
Writing application : VirtualDubMod 1.5.10.2 (build 2540/release)
Writing library : VirtualDubMod build 2540/release
Video
ID : 0
Format : MPEG-4 Visual
Format profile : Advanced Simple@L5
Format settings, BVOP : Yes
Format settings, QPel : No
Format settings, GMC : No warppoints
Format settings, Matrix : Default (H.263)
Codec ID : XVID
Codec ID/Hint : XviD
Duration : 1h 3mn
Bit rate : 2 270 Kbps
Width : 704 pixels
Height : 528 pixels
Display aspect ratio : 4:3
Frame rate : 25.000 fps
Color space : YUV
Chroma subsampling : 4:2:0
Bit depth : 8 bits
Scan type : Progressive
Bits/(Pixel*Frame) : 0.244
Stream size : 1.00 GiB (92%)
Writing library : XviD 1.2.1 (UTC 2008-12-04)
Audio
ID : 1
Format : AC-3
Format/Info : Audio Coding 3
Mode extension : CM (complete main)
Codec ID : 2000
Duration : 1h 3mn
Bit rate mode : Constant
Bit rate : 192 Kbps
Channel(s) : 2 channels
Channel positions : Front: L R
Sampling rate : 48.0 KHz
Bit depth : 16 bits
Stream size : 87.0 MiB (8%)
Alignment : Aligned on interleaves
Interleave, duration : 40 ms (1.00 video frame)
Interleave, preload duration : 512 ms

Скриншоты

Торент файл перезалит 23.02.2012. Заменил на лучшее качество видео.

[Цитировать]



Показать сообщения:    

Текущее время: 22-Июл 16:55

Часовой пояс: UTC + 6


Вы не можете начинать темы
Вы не можете отвечать на сообщения
Вы не можете редактировать свои сообщения
Вы не можете удалять свои сообщения
Вы не можете голосовать в опросах
Вы не можете прикреплять файлы к сообщениям
Вы не можете скачивать файлы

!ВНИМАНИЕ!
Сайт не предоставляет электронные версии произведений, а занимается лишь коллекционированием и каталогизацией ссылок, присылаемых и публикуемых на форуме нашими читателями. Если вы являетесь правообладателем какого-либо представленного материала и не желаете, чтобы ссылка на него находилась в нашем каталоге, свяжитесь с нами, и мы незамедлительно удалим ее. Файлы для обмена на трекере предоставлены пользователями сайта, и администрация не несет ответственности за их содержание. Просьба не заливать файлы, защищенные авторскими правами, а также файлы нелегального содержания!